<?xml version="1.0" standalone="no"?>
<!DOCTYPE svg PUBLIC "-//W3C//DTD SVG 1.1//EN" "http://www.w3.org/Graphics/SVG/1.1/DTD/svg11.dtd" >
<svg xmlns="http://www.w3.org/2000/svg" xmlns:xlink="http://www.w3.org/1999/xlink" version="1.1">
<metadata>
Created by FontForge 20170910 at Wed Apr 17 17:38:42 2019
 By Jimmy Wärting
URW Software, Copyright 1993 by URW
</metadata>
<defs>
<font id="CorporateA-BoldItalic" horiz-adv-x="1120" >
  <font-face 
    font-family="CorpoA"
    font-weight="700"
    font-style="italic"
    font-stretch="normal"
    units-per-em="2048"
    panose-1="0 0 0 0 0 0 0 0 0 0"
    ascent="1638"
    descent="-410"
    x-height="984"
    cap-height="1372"
    bbox="-263 -432 1967 1853"
    underline-thickness="113"
    underline-position="-856"
    slope="140"
    unicode-range="U+0020-25FC"
  />
<missing-glyph horiz-adv-x="748" 
d="M68 0v1365h544v-1365h-544zM136 68h408v1229h-408v-1229z" />
    <glyph glyph-name=".notdef" horiz-adv-x="748" 
d="M68 0v1365h544v-1365h-544zM136 68h408v1229h-408v-1229z" />
    <glyph glyph-name="glyph1" horiz-adv-x="0" 
 />
    <glyph glyph-name="glyph2" horiz-adv-x="682" 
 />
    <glyph glyph-name="space" unicode=" " horiz-adv-x="512" 
 />
    <glyph glyph-name="exclam" unicode="!" horiz-adv-x="572" 
d="M63 103q0 91 74 152q56 46 121 46q56 0 93 -37t37 -92q0 -91 -72 -150q-52 -44 -117 -44q-58 0 -95 34q-41 37 -41 91zM217 458l152 904h281l-292 -904h-141z" />
    <glyph glyph-name="quotedbl" unicode="&#x22;" horiz-adv-x="740" 
d="M228 818l105 547h203l-168 -547h-140zM547 818l105 547h203l-168 -547h-140z" />
    <glyph glyph-name="numbersign" unicode="#" horiz-adv-x="1231" 
d="M29 416l61 151h227l105 257h-226l61 151h227l159 390h173l-159 -390h260l159 390h174l-159 -390h225l-61 -151h-225l-105 -257h225l-62 -151h-225l-169 -416h-174l169 416h-260l-170 -416h-173l170 416h-227zM490 567h261l105 257h-260z" />
    <glyph glyph-name="dollar" unicode="$" 
d="M32 171l80 326h66q-11 -62 -11 -114q0 -286 258 -315l131 525q-20 12 -40 25q-132 81 -187 129q-113 97 -113 226q0 136 97 245q81 90 206 135q96 34 202 34q11 0 33 -1l43 172h73l-44 -178q78 -11 175 -54q52 -23 80 -23q25 0 75 29l-95 -380h-64q8 45 8 84
q0 225 -198 270l-117 -468l18 -10q138 -85 187 -122q133 -103 133 -262q0 -170 -130 -299q-168 -167 -422 -167l-43 -170h-73l44 175q-192 26 -372 188zM475 1080q0 -106 152 -202l108 432q-86 -7 -145 -44q-55 -32 -86 -85q-29 -49 -29 -101zM499 69q87 12 151 59
q55 41 87 101.5t32 126.5q0 80 -62 134q-33 29 -88 63z" />
    <glyph glyph-name="percent" unicode="%" horiz-adv-x="1457" 
d="M179 951q0 181 138 315q112 109 261 109q116 0 175 -72q49 -60 49 -155q0 -98 -46 -195q-51 -108 -147 -174q-86 -60 -195 -60q-107 0 -169 57q-66 62 -66 175zM335 0l773 1332h106l-773 -1332h-106zM344 888q0 -109 83 -109q91 0 151 161q58 156 58 269q0 104 -82 104
q-83 0 -148 -153q-62 -148 -62 -272zM761 222q0 181 139 315q112 109 261 109q116 0 175 -72q49 -60 49 -155q0 -97 -46 -195q-50 -107 -147 -174q-86 -60 -196 -60q-107 0 -169 58q-66 61 -66 174zM926 159q0 -109 83 -109q91 0 152 161q58 156 58 269q0 104 -82 104
q-84 0 -148 -153q-63 -147 -63 -272z" />
    <glyph glyph-name="ampersand" unicode="&#x26;" horiz-adv-x="1222" 
d="M26 293q0 176 147 321q53 52 205 153q-36 82 -45 104q-37 92 -37 158q0 107 83 192q68 69 178 101q72 21 144 21q140 0 220 -72q68 -62 68 -159q0 -125 -119 -242q-65 -63 -210 -150l202 -415q63 65 105 136q39 66 39 98q0 42 -92 45l18 75q104 -8 150 -8q45 0 153 8
l-18 -75q-64 -4 -89 -18q-19 -11 -34 -37q-3 -5 -26 -53q-67 -143 -167 -243l40 -82q32 -61 67 -81q31 -17 91 -19l-14 -58q-104 8 -166 8q-64 0 -160 -8l-46 90q-160 -106 -315 -106q-136 0 -231 62q-141 91 -141 254zM251 258q0 -87 51 -134q49 -46 140 -46q103 0 237 75
l-215 439q-99 -73 -138 -125q-75 -99 -75 -209zM519 1064q0 -48 22 -99q12 -27 39 -85q146 91 197 152q55 66 55 127q0 55 -41 86q-30 23 -75 23q-74 0 -130 -52q-67 -62 -67 -152z" />
    <glyph glyph-name="quotesingle" unicode="'" horiz-adv-x="421" 
d="M228 818l105 547h203l-168 -547h-140z" />
    <glyph glyph-name="parenleft" unicode="(" horiz-adv-x="684" 
d="M110 216q0 248 107 507q175 427 549 676h87q-154 -142 -257 -303q-171 -269 -257 -604q-54 -213 -54 -410q0 -291 118 -514h-70q-91 101 -147 248q-76 196 -76 400z" />
    <glyph glyph-name="parenright" unicode=")" horiz-adv-x="684" 
d="M-173 -432q156 141 260 303q174 270 262 604q58 220 58 423q0 282 -112 501h69q91 -103 145 -248q72 -190 72 -390q0 -253 -111 -518q-182 -433 -556 -675h-87z" />
    <glyph glyph-name="asterisk" unicode="*" horiz-adv-x="1024" 
d="M344 1124l72 116l199 -144l44 242l132 -33l-75 -234l244 34l9 -137h-245l106 -222l-126 -51l-77 233l-177 -169l-88 104l198 145z" />
    <glyph glyph-name="plus" unicode="+" 
d="M157 604v170h370v366h177v-366h371v-170h-371v-367h-177v367h-370z" />
    <glyph glyph-name="comma" unicode="," horiz-adv-x="529" 
d="M-81 -404q78 72 154 200q59 101 87 213q-15 -2 -24 -2q-40 0 -73 27q-41 34 -41 94q0 68 50 121q52 55 130 55q66 0 107 -45q40 -45 40 -114q0 -139 -117 -321q-94 -147 -187 -228h-126z" />
    <glyph glyph-name="hyphen" unicode="-" horiz-adv-x="449" 
d="M-17 398l51 205h450l-52 -205h-449z" />
    <glyph glyph-name="period" unicode="." horiz-adv-x="529" 
d="M21 104q0 79 58 137q59 60 135 60q58 0 95 -37t37 -93q0 -74 -52 -130q-57 -63 -138 -63q-56 0 -94 34q-41 36 -41 92z" />
    <glyph glyph-name="slash" unicode="/" horiz-adv-x="1227" 
d="M-106 -398l1276 1763h172l-1276 -1763h-172z" />
    <glyph glyph-name="zero" unicode="0" 
d="M124 402q0 229 84 463q176 489 546 489q145 0 231 -86q109 -109 109 -342q0 -210 -68 -419q-94 -288 -256 -422q-130 -107 -301 -107q-156 0 -243 96q-102 111 -102 328zM362 242q0 -199 123 -199q46 0 81.5 24t69.5 80q83 131 158 460q63 273 63 477q0 205 -131 205
q-80 0 -149 -111q-79 -126 -154 -457q-61 -267 -61 -479z" />
    <glyph glyph-name="one" unicode="1" 
d="M132 -7l19 76q103 3 148 21q47 19 72 75q13 30 28 88l213 853l-211 -13l18 72q135 11 252 66q132 66 202 157h73l-293 -1176q-12 -47 -12 -72q0 -55 87 -66q30 -4 83 -5l-19 -76q-183 15 -326 15t-334 -15z" />
    <glyph glyph-name="two" unicode="2" 
d="M26 0l46 186q294 245 551 495q140 136 183 233q27 60 27 116q0 72 -51 113q-45 37 -118 37q-122 0 -210 -88q-48 -48 -92 -143h-95q69 184 162 272q140 133 353 133q139 0 224 -62q100 -73 100 -203t-101 -261q-98 -129 -415 -380q-81 -64 -285 -222h611l-94 -226h-796z
" />
    <glyph glyph-name="three" unicode="3" 
d="M94 378h89q30 -108 98 -165q76 -64 182 -64q133 0 212 106q66 88 66 193q0 125 -105 173q-63 28 -201 29l21 84q163 2 238 45q62 37 99 100q38 65 38 136q0 72 -47 120q-49 51 -128 51q-110 0 -187 -88q-40 -46 -79 -125h-89q58 177 141 259q122 122 301 122
q147 0 241 -84q98 -86 98 -223q0 -258 -352 -336q110 -29 167 -71q97 -74 97 -216q0 -87 -36 -170.5t-101 -146.5q-135 -129 -346 -129q-209 0 -323 134q-85 100 -94 266z" />
    <glyph glyph-name="four" unicode="4" 
d="M-22 300l5 20l809 1011h283l-198 -836h209l-48 -195h-203l-83 -334h-257l83 334h-600zM238 495h394l189 758z" />
    <glyph glyph-name="five" unicode="5" 
d="M98 372h91q16 -66 52 -115q77 -105 209 -105q124 0 198 90q93 112 93 273q0 106 -57 176q-52 63 -140 63q-150 0 -271 -147l-84 14l289 710h670l-91 -211h-569l-149 -351q63 52 107 76q102 56 227 56q161 0 248 -93q93 -99 93 -274q0 -242 -149 -401q-146 -155 -365 -155
q-248 0 -352 190q-45 84 -50 204z" />
    <glyph glyph-name="six" unicode="6" 
d="M94 349q0 334 362 665q108 99 309 243q99 71 174 108h127q-278 -193 -494 -487q84 42 166 42q111 0 188 -65q102 -86 102 -261q0 -248 -157 -430q-160 -187 -399 -187q-172 0 -270 97q-108 106 -108 275zM333 204q0 -77 43 -123q34 -37 86 -37q120 0 211 191
q103 216 103 423q0 168 -124 168q-108 0 -196 -161q-55 -100 -95 -263q-28 -116 -28 -198z" />
    <glyph glyph-name="seven" unicode="7" 
d="M114 0l851 1119h-680l67 212h880l-905 -1331h-213z" />
    <glyph glyph-name="eight" unicode="8" 
d="M100 277q0 134 82 246q90 121 277 178q-76 30 -111 75q-47 59 -47 147q0 117 73 224q141 207 400 207q140 0 225 -58q101 -69 101 -206q0 -169 -123 -288q-69 -66 -178 -101q188 -63 188 -253q0 -112 -58 -216q-71 -127 -204 -194q-119 -60 -263 -60q-156 0 -253 73
q-109 82 -109 226zM346 197q0 -63 24 -103q30 -51 94 -51q117 0 197 169q32 67 52.5 151t20.5 147q0 66 -31 109q-31 41 -92 41q-103 0 -183 -145q-35 -65 -58.5 -156t-23.5 -162zM533 854q0 -53 24 -89q25 -38 72 -38q101 0 169 154q64 143 64 277q0 131 -98 131
q-92 0 -160 -140q-30 -64 -50.5 -148t-20.5 -147z" />
    <glyph glyph-name="nine" unicode="9" 
d="M154 -33q274 188 494 487q-84 -42 -166 -42q-120 0 -199 74q-91 86 -91 251q0 252 160 435q159 182 397 182q179 0 279 -107q98 -104 98 -265q0 -330 -352 -656q-108 -100 -317 -250q-101 -72 -176 -109h-127zM444 671q0 -165 122 -165q111 0 198 161q54 99 95 263
q28 115 28 197q0 77 -43 123q-34 37 -90 37q-117 0 -207 -190q-103 -216 -103 -426z" />
    <glyph glyph-name="colon" unicode=":" horiz-adv-x="529" 
d="M21 104q0 79 58 137q59 60 135 60q58 0 95 -37t37 -93q0 -74 -52 -130q-57 -63 -138 -63q-56 0 -94 34q-41 36 -41 92zM179 740q0 79 58 137q60 60 135 60q58 0 95 -37t37 -93q0 -73 -52 -130q-57 -63 -138 -63q-56 0 -94 34q-41 36 -41 92z" />
    <glyph glyph-name="semicolon" unicode=";" horiz-adv-x="529" 
d="M-81 -404q80 75 154 200q60 103 87 213q-16 -2 -24 -2q-40 0 -73 27q-41 34 -41 95q0 67 50 120q52 55 130 55q66 0 107 -45q40 -45 40 -114q0 -139 -117 -321q-93 -146 -187 -228h-126zM174 740q0 79 58 137q60 60 135 60q58 0 95 -37t37 -93q0 -73 -52 -130
q-57 -63 -138 -63q-56 0 -94 34q-41 36 -41 92z" />
    <glyph glyph-name="less" unicode="&#x3c;" horiz-adv-x="1024" 
d="M85 714v15l854 543v-98l-589 -379l589 -396v-261z" />
    <glyph glyph-name="equal" unicode="=" 
d="M157 463v158h918v-158h-918zM157 757v158h918v-158h-918z" />
    <glyph glyph-name="greater" unicode="&#x3e;" horiz-adv-x="1024" 
d="M85 138v98l589 380l-589 396v260l854 -576v-14z" />
    <glyph glyph-name="question" unicode="?" horiz-adv-x="853" 
d="M118 103q0 91 74 152q56 46 121 46q56 0 93 -37t37 -92q0 -91 -72 -150q-52 -44 -117 -44q-58 0 -95 34q-41 37 -41 91zM227 1023q41 153 136 243q125 118 303 118q144 0 225 -83q72 -73 72 -189q0 -145 -107 -242q-45 -41 -96 -72q-29 -17 -168 -99q-116 -68 -158 -124
q-26 -36 -45 -123h-90q14 127 47 197q28 66 199 207q89 72 109 97q47 59 47 123t-39 104q-38 39 -104 39q-92 0 -166 -73q-46 -45 -77 -123h-88z" />
    <glyph glyph-name="at" unicode="@" horiz-adv-x="1484" 
d="M-46 674q0 216 116 396q106 163 283 247q146 69 311 69q272 0 464 -174q170 -153 170 -391q0 -221 -137 -372q-85 -94 -190 -139q-60 -26 -115 -26q-84 0 -122 62q-20 32 -30 102q-52 -71 -83 -97q-66 -57 -145 -57q-115 0 -194 90q-68 77 -68 191q0 187 143 325
q126 122 274 122q132 0 166 -141l33 123h184l-148 -546q-9 -35 -9 -57q0 -52 45 -52q39 0 88.5 39t95.5 105q104 152 104 318q0 209 -171 346q-146 117 -349 117q-241 0 -404 -146q-88 -79 -139 -193q-55 -122 -55 -258q0 -225 138 -383q76 -87 189 -140q136 -64 292 -64
q282 0 471 267h125q-49 -88 -91 -138t-110 -100q-187 -140 -412 -140q-232 0 -421 125q-160 106 -238 280q-61 137 -61 290zM399 500q0 -61 28 -103q29 -44 78 -44q103 0 186 182q35 76 54 170q14 69 14 119q0 55 -22 92q-28 47 -84 47q-47 0 -95 -47t-89 -133
q-70 -149 -70 -283z" />
    <glyph glyph-name="A" unicode="A" horiz-adv-x="1353" 
d="M-94 -7l19 76q50 4 77 9q65 15 125 92q21 27 76 112l748 1137h28l115 -1205q9 -88 56 -121q34 -20 112 -24l-19 -76q-152 15 -296 15q-145 0 -305 -15l19 76q100 5 122 16q37 19 37 70q0 8 -2 42l-10 173h-450l-94 -145q-47 -74 -47 -106t37 -41q22 -6 86 -9l-19 -76
q-130 10 -205 10q-74 0 -210 -10zM410 448h390l-30 556z" />
    <glyph glyph-name="B" unicode="B" horiz-adv-x="1221" 
d="M-59 0l19 76q86 3 123 16q39 15 58 59q12 25 23 69l231 926q13 52 13 78q0 45 -57 57q-29 6 -88 8l19 76h532q181 0 265 -32q144 -55 144 -222q0 -88 -43.5 -168t-122.5 -137q-64 -46 -158 -70q79 -17 126 -46q105 -64 105 -206q0 -141 -82 -263q-102 -154 -306 -197
q-113 -24 -252 -24h-549zM412 127q0 -44 73 -44h66q79 0 135 31q86 47 141 194q38 102 38 201q0 98 -59 135q-49 30 -156 30h-106l-120 -480q-12 -47 -12 -67zM563 752h98q97 0 151 32q75 44 122 161q37 94 37 181q0 106 -66 139q-44 22 -147 22h-62z" />
    <glyph glyph-name="C" unicode="C" horiz-adv-x="1238" 
d="M113 470q0 206 79 407q103 258 301 400q169 121 384 121q93 0 174 -23q35 -11 123 -53q46 -22 74 -22q27 0 83 31l-86 -403h-66q0 128 -19 188q-24 83 -81 132q-68 61 -169 61q-241 0 -397 -302q-63 -124 -101 -278q-34 -142 -34 -273q0 -165 81 -256q73 -83 212 -83
q207 0 332 159q66 84 102 211h73q-35 -178 -129 -303q-162 -217 -448 -217q-235 0 -366 141q-122 131 -122 362z" />
    <glyph glyph-name="D" unicode="D" horiz-adv-x="1369" 
d="M-59 0l19 76q86 2 123 16q39 15 58 58q12 26 23 69l231 926q13 53 13 79q0 45 -57 57q-29 6 -88 8l19 76h552q168 0 257 -27q140 -41 212 -170q62 -110 62 -281q0 -239 -104 -445q-111 -220 -306.5 -331t-470.5 -111h-543zM411 127q0 -51 83 -51q118 0 198.5 27.5
t137.5 86.5q132 138 213 414q57 195 57 383q0 192 -93 259q-56 41 -200 41h-111l-272 -1091q-13 -53 -13 -69z" />
    <glyph glyph-name="E" unicode="E" horiz-adv-x="1167" 
d="M-59 0l19 76q87 3 123 16q39 15 58 59q12 25 23 69l231 926q13 52 13 79q0 44 -56 56q-30 6 -89 8l19 76h946l-33 -360h-64q1 35 1 53q0 161 -76 203q-47 26 -151 26h-209l-133 -533h411l-23 -93h-411l-112 -448q-15 -67 -15 -83q0 -52 103 -52h105q125 1 193 46
q69 43 149 157q32 44 61 99h63l-158 -380h-988z" />
    <glyph glyph-name="F" unicode="F" horiz-adv-x="1072" 
d="M-61 -7l19 76q86 2 123 16q39 15 58 59q11 24 23 68l232 934q13 51 13 79q0 44 -56 56q-30 6 -89 8l19 76h955l-33 -360h-64q2 40 2 58q0 155 -76 199q-43 25 -151 25h-218l-133 -533h419l-23 -93h-419l-112 -449q-11 -43 -11 -72q0 -50 59 -63q26 -6 88 -8l-19 -76
q-153 15 -298 15q-148 0 -308 -15z" />
    <glyph glyph-name="G" unicode="G" horiz-adv-x="1333" 
d="M103 431q0 211 87 427q109 273 332 418q172 112 378 112q96 0 177 -28q43 -15 123 -57q49 -26 78 -26q24 0 90 33l-96 -382h-65q1 36 1 53q0 125 -39 203q-30 60 -86 97q-64 41 -147 41q-235 0 -400 -315q-80 -151 -129 -340q-44 -171 -44 -312q0 -144 72 -227
q75 -85 193 -85q96 0 195 40l91 367q9 35 9 58q0 36 -42 47q-25 7 -79 10l19 76q134 -13 258 -13q126 0 265 13l-19 -76q-69 -4 -103 -23q-24 -15 -36 -44q-4 -9 -15 -52l-89 -355q-262 -114 -484 -114q-226 0 -355 110q-67 56 -103.5 146t-36.5 198z" />
    <glyph glyph-name="H" unicode="H" horiz-adv-x="1439" 
d="M-61 -7l19 76q86 2 123 16q39 15 58 59q11 24 23 68l234 941q13 52 13 78q0 46 -56 58q-30 6 -89 7l19 76q151 -15 287 -15q137 0 309 15l-18 -76q-83 -2 -120 -16q-38 -14 -57 -58q-9 -19 -22 -69l-100 -402h462l100 402q12 49 12 78q0 46 -55 58q-29 6 -88 7l19 76
q161 -15 300 -15q138 0 297 15l-19 -76q-85 -2 -123 -16q-39 -15 -58 -58q-13 -27 -23 -69l-235 -941q-11 -46 -11 -79q0 -44 55 -56q27 -6 89 -8l-19 -76q-153 15 -289 15q-138 0 -308 -15l19 76q83 2 119 16q38 15 57 59q10 22 22 68l115 461h-457l-115 -461
q-14 -55 -14 -79q0 -44 54 -56q26 -6 86 -8l-18 -76q-168 15 -302 15t-295 -15z" />
    <glyph glyph-name="I" unicode="I" horiz-adv-x="715" 
d="M-61 -7l19 76q86 2 123 16q39 15 58 59q11 24 23 68l234 941q12 47 12 81q0 42 -56 54q-29 7 -88 8l19 76q166 -15 297 -15q132 0 301 15l-19 -76q-83 -2 -120 -16q-38 -14 -57 -58q-11 -23 -23 -69l-234 -941q-12 -47 -12 -80q0 -43 54 -55q26 -6 86 -8l-19 -76
q-164 15 -293 15t-305 -15z" />
    <glyph glyph-name="J" unicode="J" horiz-adv-x="714" 
d="M-163 -144l23 90q37 -8 66 -8q123 0 186 116q42 77 91 274l206 825q12 48 12 79q0 44 -56 56q-29 7 -88 8l18 76q167 -15 294 -15t303 15l-19 -76q-82 -2 -119 -16q-38 -15 -57 -58q-11 -23 -22 -69l-216 -866q-59 -239 -178 -337q-126 -103 -344 -103q-55 0 -100 9z" />
    <glyph glyph-name="K" unicode="K" horiz-adv-x="1355" 
d="M-61 -7l19 76q86 2 123 16q39 15 58 59q11 24 23 68l234 941q13 51 13 80q0 40 -56 54q-31 8 -89 9l19 76q166 -15 304 -15q136 0 292 15l-18 -76q-83 -2 -119 -16q-38 -14 -57 -58q-11 -24 -23 -69l-117 -470l541 484q59 52 59 84q0 27 -33 36q-24 6 -72 9l18 76
q125 -8 218 -8q92 0 220 8l-18 -76q-95 -5 -167 -51q-67 -43 -189 -148l-288 -249l172 -489q8 -26 27 -77q43 -125 80 -164q43 -45 109 -45q38 0 89 11l-18 -69q-102 -35 -201 -35q-145 0 -217 86q-52 62 -102 206l-142 410l-110 -97l-93 -373q-14 -55 -14 -79q0 -44 54 -56
q18 -4 71 -8l-18 -76q-126 15 -262 15q-145 0 -320 -15z" />
    <glyph glyph-name="L" unicode="L" horiz-adv-x="1084" 
d="M-59 0l19 76q86 2 123 16q39 14 58 59q12 24 23 69l232 933q13 50 13 80q0 43 -56 55q-29 7 -89 8l19 76q166 -15 298 -15q131 0 300 15l-19 -76q-82 -2 -120 -16t-57 -58q-11 -23 -22 -69l-241 -967q-10 -38 -10 -57q0 -33 31 -44q21 -7 64 -7h102q109 1 179 46t149 157
q31 43 61 99h62l-157 -380h-962z" />
    <glyph glyph-name="M" unicode="M" horiz-adv-x="1753" 
d="M-65 -7l19 76q102 13 145 62q32 39 66 150q11 34 58 200l57 209l133 461q11 40 11 76q0 47 -55 59q-28 7 -89 8l19 78q109 -10 214 -10q113 0 237 10l120 -928l591 928q135 -10 243 -10q100 0 209 10l-19 -76q-88 -4 -123 -18q-57 -24 -79 -125l-202 -872
q-22 -120 -22 -137q0 -47 49 -64q24 -8 89 -11l-19 -76q-169 15 -295 15t-303 -15l19 76q87 3 123 17q38 14 59 58q9 18 22 68l262 1052l-776 -1224h-29l-153 1224l-280 -1052q-14 -52 -14 -78q0 -45 54 -57q24 -6 85 -8l-19 -76q-110 7 -192 7q-78 0 -215 -7z" />
    <glyph glyph-name="N" unicode="N" horiz-adv-x="1372" 
d="M-72 -7l19 76q77 8 111 26q51 27 80 106q31 83 105 383l27 106l131 527q-31 38 -58 55q-35 21 -93 24l19 76q108 -7 191 -7q82 0 193 7l416 -932l174 699q16 64 16 95q0 42 -55 54q-29 7 -88 8l19 76q112 -7 204 -7t207 7l-19 -76q-86 -2 -122 -17q-55 -25 -84 -140
l-293 -1173h-35l-527 1200l-224 -899q-23 -92 -23 -127q0 -51 53 -63q25 -6 86 -8l-19 -76q-113 8 -204 8q-92 0 -207 -8z" />
    <glyph glyph-name="O" unicode="O" horiz-adv-x="1328" 
d="M111 456q0 232 95 453q118 273 330 399q152 90 337 90q198 0 324 -118q132 -123 132 -365q0 -192 -64 -380q-95 -279 -298 -435q-174 -133 -391 -133q-205 0 -330 115q-135 125 -135 374zM375 327q0 -131 49 -211q50 -83 157 -83q201 0 343 347q70 169 109 370
q30 155 30 285q0 297 -208 297q-190 0 -328 -319q-63 -146 -109 -346q-43 -190 -43 -340z" />
    <glyph glyph-name="P" unicode="P" horiz-adv-x="1175" 
d="M-61 -7l19 76q87 3 123 16q39 15 58 58q11 24 23 69l232 934q13 50 13 79q0 44 -56 56q-29 6 -89 8l19 76h563q160 0 233 -23q103 -34 151 -115q40 -68 40 -149q0 -117 -55 -232q-75 -159 -260 -225q-114 -41 -263 -41h-170l-92 -368q-12 -47 -12 -76q0 -46 60 -59
q25 -6 88 -8l-19 -76q-167 15 -299 15q-131 0 -307 -15zM539 658h90q109 0 180 39q99 54 154 204q40 107 40 203q0 118 -79 158q-49 25 -145 25h-83z" />
    <glyph glyph-name="Q" unicode="Q" horiz-adv-x="1326" 
d="M108 447q0 203 76 408q57 151 147.5 269t201.5 184q151 90 327 90q207 0 334 -117q132 -122 132 -360q0 -256 -104 -492q-131 -299 -388 -409q-107 -47 -244 -53q46 -11 116 -40q83 -36 134 -36q112 0 205 107l-32 -130q-123 -138 -264 -138q-60 0 -144 35q-18 7 -113 51
q-56 26 -108 26q-118 0 -233 -155l42 179q91 106 244 116q-121 31 -194 101q-135 128 -135 364zM373 326q0 -133 52 -208q58 -85 162 -85q119 0 215 116q115 138 199 468q60 235 60 426q0 289 -203 289q-176 0 -323 -310q-72 -153 -119 -355q-43 -184 -43 -341z" />
    <glyph glyph-name="R" unicode="R" horiz-adv-x="1343" 
d="M-61 -7l19 76q86 3 123 16q39 15 58 59q11 23 23 68l232 934q13 50 13 78q0 45 -56 57q-30 6 -89 8l19 76h532q202 0 275 -21q86 -26 130 -91q48 -70 48 -166q0 -141 -91 -253q-108 -134 -349 -179q80 -28 122 -77q37 -44 60 -147l33 -149q18 -81 34 -119q38 -90 142 -90
q39 0 88 11l-17 -69q-102 -35 -201 -35q-151 0 -218 86q-47 61 -80 206l-44 195q-25 109 -51 139q-30 36 -125 37h-34l-107 -431q-15 -58 -15 -81q0 -43 53 -54q27 -6 88 -8l-18 -76q-154 15 -287 15q-135 0 -310 -15zM556 721h103q178 0 260 117q36 51 59 128t23 147
q0 124 -90 158q-43 16 -151 16h-63z" />
    <glyph glyph-name="S" unicode="S" horiz-adv-x="1116" 
d="M31 171l80 326h66q-11 -62 -11 -113q0 -138 63 -220q74 -98 227 -98q119 0 203 68q110 89 110 222q0 73 -55 127q-33 32 -122 87q-211 129 -270 183q-107 97 -107 218q0 195 180 320q140 96 331 96q136 0 274 -61q52 -23 80 -23q25 0 75 29l-95 -380h-64q8 45 8 84
q0 124 -63 196q-69 78 -188 78q-115 0 -195 -65q-84 -70 -84 -166q0 -81 74 -144q49 -41 217 -143q134 -81 186 -140q77 -86 77 -208q0 -217 -199 -357q-155 -109 -348 -109q-174 0 -325 96q-51 32 -125 97z" />
    <glyph glyph-name="T" unicode="T" horiz-adv-x="1121" 
d="M143 -7l19 76q84 2 120 16q39 15 58 59q9 20 21 69l268 1074h-55h-3q-135 0 -230 -99q-64 -68 -124 -199h-71l159 376h961l-31 -376h-68v38q0 150 -60 211q-48 49 -152 49h-59l-268 -1074q-12 -47 -12 -81q0 -43 55 -55q27 -6 89 -8l-19 -76q-157 15 -297 15t-301 -15z
" />
    <glyph glyph-name="U" unicode="U" horiz-adv-x="1359" 
d="M192 295q0 83 32 212l161 646q12 47 12 79q0 45 -56 56q-29 7 -88 8l19 76q166 -15 293 -15t305 15l-19 -76q-83 -2 -120 -16q-38 -14 -58 -58q-10 -22 -22 -69l-166 -669q-33 -132 -33 -206q0 -72 50 -119q66 -62 186 -62q144 0 252 93q83 71 136 242q19 64 39 143
l144 578q14 56 14 77q0 46 -53 58q-27 7 -88 8l19 76q112 -7 205 -7t207 7l-19 -76q-123 -9 -163 -84q-28 -49 -61 -172q-57 -203 -63 -228l-70 -284q-48 -193 -96 -276q-85 -149 -232 -218q-120 -57 -268 -57q-198 0 -303 94q-96 87 -96 224z" />
    <glyph glyph-name="V" unicode="V" horiz-adv-x="1153" 
d="M154 1296l19 76q182 -15 345 -15q129 0 231 15l-19 -76q-85 -11 -111 -22q-36 -16 -36 -60q0 -12 7 -81l71 -796l371 637q137 234 137 281q0 46 -66 46q-17 0 -47 -4l-11 68q68 2 139 19q78 20 123 49q17 -39 17 -72q0 -54 -38 -128q-9 -19 -76 -129l-32 -55l-669 -1086
h-53l-150 1159q-18 124 -51 147q-34 24 -101 27z" />
    <glyph glyph-name="W" unicode="W" horiz-adv-x="1697" 
d="M190 1296l19 76q144 -15 282 -15q140 0 290 15l-19 -76q-58 -6 -81 -10q-63 -14 -74 -65q-4 -21 -4 -86v-694l542 961h95l52 -961l320 605q32 59 58 123t26 82q0 48 -82 48q-15 0 -35 -2l-8 68q94 1 166 18t120 50q8 -26 8 -46q0 -53 -56 -152q-36 -65 -86 -159
l-605 -1113h-52l-43 1068l-606 -1065h-49l-42 1158q-3 102 -33 134t-103 38z" />
    <glyph glyph-name="X" unicode="X" horiz-adv-x="1243" 
d="M-120 -7l19 76q69 6 108 20q79 29 154 111q75 81 87 91l314 342l-136 521q-27 98 -79 121q-37 17 -100 21l19 76q146 -15 294 -15q149 0 301 15l-18 -76q-153 -8 -153 -82q0 -10 11 -51l82 -310l259 287q65 72 65 114q0 45 -70 45q-12 0 -33 -2l-5 68q178 8 290 68
q11 -37 11 -63q0 -70 -90 -165q-76 -80 -107 -113l-298 -321l135 -510q38 -142 93 -169q37 -20 121 -23l-19 -76q-160 15 -303 15q-145 0 -312 -15l19 76q86 6 107 16q36 17 36 63q0 21 -12 68l-85 330l-304 -332q-65 -71 -65 -100t36 -37q19 -4 70 -8l-19 -76
q-122 7 -210 7t-213 -7z" />
    <glyph glyph-name="Y" unicode="Y" horiz-adv-x="1081" 
d="M137 -7l19 76q89 2 127 16q40 15 60 59q11 23 22 68l94 375l-105 469q-24 108 -35 138q-32 77 -95 95q-16 5 -49 7l14 76q143 -15 288 -15q147 0 299 15l-19 -76q-49 -2 -80 -8q-72 -14 -72 -65q0 -11 8 -70l90 -478l294 425q76 111 76 151q0 48 -78 48q-12 0 -32 -2
l-9 68q189 12 298 68q7 -34 7 -56q0 -37 -16 -68q-18 -35 -55 -83q-15 -20 -130 -179l-333 -459l-94 -376q-13 -53 -13 -81q0 -42 51 -54q25 -6 83 -8l-18 -76q-172 15 -296 15q-125 0 -301 -15z" />
    <glyph glyph-name="Z" unicode="Z" horiz-adv-x="1077" 
d="M-88 0l986 1287h-199q-101 0 -166 -26q-124 -48 -248 -252h-71l150 356h892l-985 -1287h311q108 0 169 30q91 43 187 171q39 53 81 125h41l-141 -404h-1007z" />
    <glyph glyph-name="bracketleft" unicode="[" horiz-adv-x="683" 
d="M5 -398l440 1763h405l-15 -61h-223l-409 -1641h223l-15 -61h-406z" />
    <glyph glyph-name="backslash" unicode="\" horiz-adv-x="1227" 
d="M410 1365h172l316 -1763h-172z" />
    <glyph glyph-name="bracketright" unicode="]" horiz-adv-x="683" 
d="M-158 -398l15 61h224l409 1641h-224l16 61h405l-439 -1763h-406z" />
    <glyph glyph-name="asciicircum" unicode="^" horiz-adv-x="1024" 
d="M-55 579l576 855h15l543 -855h-98l-380 589l-395 -589h-261z" />
    <glyph glyph-name="underscore" unicode="_" horiz-adv-x="1024" 
d="M35 -183h954v-113h-954v113z" />
    <glyph glyph-name="grave" unicode="`" horiz-adv-x="1024" 
d="M327 1402h378l51 -285h-78z" />
    <glyph glyph-name="a" unicode="a" horiz-adv-x="1134" 
d="M41 303q0 146 71 307q87 196 234 298q119 82 251 82q98 0 146 -51q33 -36 37 -113l41 143q126 1 257 21l-172 -605q-52 -186 -52 -227q0 -64 51 -64q47 0 90 62q12 18 33 61l56 -24q-102 -215 -272 -215q-161 0 -188 179q-38 -62 -75 -99q-80 -80 -196 -80
q-145 0 -229 93q-83 93 -83 232zM280 187q0 -58 19 -96q29 -56 87 -56q123 0 220 232q45 109 90 286q39 150 39 230q0 150 -115 150q-66 0 -124 -75t-119 -237q-97 -260 -97 -434z" />
    <glyph glyph-name="b" unicode="b" horiz-adv-x="1062" 
d="M121 300q0 87 64 344l122 487q17 70 17 96q0 40 -48 47q-25 3 -78 3l14 54q205 14 419 72l-127 -508q101 95 226 95q149 0 230 -103q66 -85 66 -230q0 -143 -58 -284q-81 -193 -238 -305q-126 -90 -278 -90q-176 0 -265 112q-66 85 -66 210zM351 177q0 -59 24 -98
q28 -44 80 -44q82 0 149 98q79 115 135 334q48 191 48 321q0 145 -101 145q-133 0 -236 -283q-43 -119 -72 -264q-27 -134 -27 -209z" />
    <glyph glyph-name="c" unicode="c" horiz-adv-x="910" 
d="M48 323q0 146 62 294q82 193 238 295q126 82 269 82q90 0 184 -41q48 -21 75 -21q23 0 62 28l-74 -351h-60q10 52 10 95q0 113 -48 171q-42 52 -108 52q-145 0 -262 -243q-47 -96 -74.5 -204.5t-27.5 -196.5q0 -94 45 -158q46 -65 136 -65q118 0 206 118q45 61 72 146h91
q-129 -350 -440 -350q-158 0 -251 85q-105 95 -105 264z" />
    <glyph glyph-name="d" unicode="d" horiz-adv-x="1135" 
d="M47 323q0 139 62 286q81 189 226 294q121 87 256 87q126 0 189 -95l59 236q18 74 18 95q0 41 -46 48q-23 3 -74 3l14 54q201 14 412 72l-253 -1018q-45 -179 -45 -222q0 -69 54 -69q47 0 87 62q12 18 32 61l56 -24q-40 -91 -87 -140q-73 -75 -182 -75q-156 0 -197 145
q-93 -145 -253 -145q-149 0 -236 94q-92 98 -92 251zM286 195q0 -64 22 -104q31 -56 92 -56q120 0 213 232q40 98 81 286q33 148 33 228q0 152 -117 152q-55 0 -103 -51t-99 -163q-55 -122 -93 -290q-29 -131 -29 -234z" />
    <glyph glyph-name="e" unicode="e" horiz-adv-x="921" 
d="M45 310q0 142 61 291q82 200 239 303q130 86 283 86q113 0 191 -50q93 -59 93 -179q0 -183 -254 -303q-152 -72 -359 -82q-15 -66 -15 -118q0 -81 38 -130q53 -68 150 -68q118 0 211 111q48 57 81 135h87q-51 -122 -142 -209q-127 -120 -319 -120q-151 0 -245 83
q-100 89 -100 250zM316 449q141 0 241 75q69 52 107 130q36 73 36 152q0 50 -18 82q-24 45 -70 45q-104 0 -203 -206q-57 -119 -93 -278z" />
    <glyph glyph-name="f" unicode="f" horiz-adv-x="648" 
d="M-213 -397l16 75q67 12 111 35q51 28 82 74.5t55 130.5q16 59 62 269l22 108l128 594h-143l16 76q81 0 112 15q31 16 50 59q13 40 26 71q15 43 30 87q43 123 150 174q80 38 178 38q104 0 173 -42q74 -44 74 -128q0 -44 -24 -76q-28 -39 -76 -39q-38 0 -67 25
q-26 23 -26 59q0 17 21 67q3 7 3 17q0 28 -20 45q-19 15 -48 15q-65 0 -87 -71q-7 -23 -23 -108l-10 -48l-34 -160h214l-17 -76h-214l-122 -570q-42 -195 -69 -282q-76 -261 -289 -372q-118 -61 -254 -62z" />
    <glyph glyph-name="g" unicode="g" horiz-adv-x="961" 
d="M-54 -188q0 160 209 215q-78 57 -78 123q0 78 89 143q39 29 142 74q-168 84 -168 243q0 147 113 259q121 121 318 121q135 0 227 -69l240 12l-27 -104h-150q27 -48 27 -119q0 -105 -49 -190q-70 -123 -210 -158q-63 -16 -170 -17q-73 -16 -122 -37q-71 -29 -71 -75
q0 -24 28 -35q25 -11 55 -13q19 -2 112 -9q168 -13 251 -40q147 -49 147 -207q0 -123 -84 -216q-125 -139 -411 -139q-189 0 -294 56q-124 67 -124 182zM39 -185q0 -89 93 -129q92 -39 232 -39q147 0 218 54q66 51 66 131q0 73 -61 105q-74 39 -255 39q-148 0 -220 -38
q-73 -39 -73 -123zM351 505q0 -46 25 -76q30 -36 82 -36q90 0 147 126q29 62 50 153t21 150q0 111 -101 111q-89 0 -148 -125q-30 -62 -53 -155t-23 -148z" />
    <glyph glyph-name="h" unicode="h" horiz-adv-x="1186" 
d="M56 0l282 1131q19 79 19 93q0 43 -49 50q-24 3 -78 3l13 54q202 14 420 72l-133 -533q122 120 284 120q110 0 173 -57q60 -55 60 -147q0 -60 -20 -139l-77 -308q-39 -149 -39 -190q0 -59 46 -59q38 0 62 35q17 26 46 100l56 -15q-50 -232 -251 -232q-88 0 -145 50
q-60 53 -60 138q0 61 34 196l80 318q16 64 16 96q0 50 -29 77q-30 28 -80 28q-153 0 -212 -233l-161 -648h-257z" />
    <glyph glyph-name="i" unicode="i" horiz-adv-x="635" 
d="M105 162q0 62 38 201l103 372q21 78 21 102q0 34 -46 40q-25 4 -75 4l15 54q209 15 418 71l-184 -667q-44 -155 -44 -194q0 -55 45 -55q40 0 66 41q17 25 46 94l56 -15q-57 -232 -258 -232q-87 0 -143 50q-58 51 -58 134zM367 1232q0 85 66 138q46 36 97 36q42 0 73 -26
q40 -34 40 -97q0 -87 -65 -137q-40 -32 -90 -32q-49 0 -82 30q-39 35 -39 88z" />
    <glyph glyph-name="j" unicode="j" horiz-adv-x="575" 
d="M-263 -398l19 75q171 27 233 176q44 104 121 441l110 441q18 70 18 97q0 39 -44 45q-23 3 -70 3l13 54q204 16 407 72l-171 -688q-45 -180 -79 -282q-89 -262 -301 -372q-120 -60 -256 -62zM334 1232q0 85 66 138q46 36 97 36q42 0 73 -26q40 -34 40 -97q0 -87 -65 -137
q-41 -32 -91 -32q-48 0 -82 30q-38 35 -38 88z" />
    <glyph glyph-name="k" unicode="k" horiz-adv-x="1108" 
d="M56 0l282 1131q18 71 18 97q0 40 -47 46q-27 3 -75 3l13 54q124 13 205 27q45 7 210 45l-229 -922l303 289q55 53 55 91q0 35 -38 46q-20 6 -57 9l14 58q110 -12 218 -12q110 0 260 12l-15 -58q-81 -9 -122 -28q-22 -10 -63.5 -37.5t-66.5 -49.5l-196 -169l127 -365
q36 -99 54 -135q33 -68 109 -68q14 0 51 5l-14 -56q-82 -35 -161 -35q-134 0 -198 86q-47 63 -76 148l-89 254l-126 -110l-89 -356h-257z" />
    <glyph glyph-name="l" unicode="l" horiz-adv-x="635" 
d="M113 168q0 62 33 194l191 769q19 78 19 98q0 36 -45 43q-27 5 -78 5l13 54q201 14 417 72l-265 -1064q-39 -155 -39 -191q0 -58 47 -58q40 0 66 41q18 27 42 94l57 -15q-57 -232 -251 -232q-88 0 -145 50q-62 54 -62 140z" />
    <glyph glyph-name="m" unicode="m" horiz-adv-x="1681" 
d="M56 0l183 731l7 35q12 49 12 63q0 40 -47 46q-24 3 -85 3l14 54q213 21 347 60q5 -35 5 -69q0 -51 -8 -97q48 66 109 104q96 60 203 60q113 0 168 -73q24 -32 40 -89q116 162 313 162q119 0 180 -64q47 -49 47 -127q0 -62 -20 -143l-79 -317q-40 -159 -40 -194
q0 -55 47 -55q38 0 61 36q18 26 46 99l57 -15q-51 -232 -252 -232q-88 0 -144 50q-61 53 -61 137q0 61 35 197l74 300q21 83 21 119q0 46 -29 70q-27 24 -69 24q-75 0 -130 -71q-34 -44 -52 -117l-172 -687h-257l173 693q13 51 13 89q0 45 -27 70q-24 23 -67 23
q-76 0 -131 -69q-39 -49 -57 -121l-171 -685h-257z" />
    <glyph glyph-name="n" unicode="n" horiz-adv-x="1191" 
d="M56 0l183 731q15 84 15 102q0 34 -45 41q-23 4 -80 4l14 54q201 19 343 60q7 -38 7 -68q0 -48 -11 -104q136 170 333 170q125 0 191 -73q44 -49 44 -124q0 -71 -25 -173l-71 -281q-38 -156 -38 -190q0 -59 45 -59q38 0 62 36q18 26 46 99l56 -15q-50 -232 -251 -232
q-88 0 -144 50q-61 53 -61 137q0 61 35 197l72 290q20 81 20 127q0 47 -28 74q-31 28 -78 28q-84 0 -144 -74q-46 -57 -72 -159l-161 -648h-257z" />
    <glyph glyph-name="o" unicode="o" horiz-adv-x="1030" 
d="M55 348q0 155 66 300q79 174 219 261q131 81 288 81t255 -94q102 -98 102 -275q0 -115 -37.5 -229t-103.5 -200q-165 -214 -429 -214q-154 0 -249 84q-111 99 -111 286zM294 213q0 -177 128 -177q82 0 143 79q70 91 130 306q51 183 51 328q0 184 -133 184
q-61 0 -109.5 -48t-94.5 -153q-46 -106 -82 -263q-33 -141 -33 -256z" />
    <glyph glyph-name="p" unicode="p" horiz-adv-x="1100" 
d="M-45 -403l283 1136q17 67 17 95q0 42 -46 48q-20 3 -80 3l13 54q159 11 346 57q4 -37 4 -65q0 -32 -4 -77q46 56 87 85q77 57 179 57q135 0 219 -91q87 -94 87 -256q0 -145 -60 -286q-81 -193 -225 -295q-118 -84 -255 -84q-83 0 -133 34q-27 18 -57 60l-118 -475h-257z
M382 187q0 -57 23 -99q30 -53 94 -53q124 0 214 225q50 126 83 301q25 130 25 224q0 148 -108 148t-190 -165q-58 -116 -108 -342q-33 -148 -33 -239z" />
    <glyph glyph-name="q" unicode="q" horiz-adv-x="1091" 
d="M45 315q0 136 60 280q82 195 238 305q129 90 267 90q101 0 150 -56q26 -29 46 -86q31 76 71 142q102 -31 216 -43q-71 -107 -123 -323l-257 -1027h-256l118 475q-45 -43 -84 -63q-61 -31 -141 -31q-129 0 -205 73q-100 96 -100 264zM284 179q0 -64 26 -101q30 -42 80 -42
q132 0 220 220q46 116 82.5 279.5t36.5 255.5q0 142 -110 142q-114 0 -212 -221q-52 -119 -91 -289q-32 -140 -32 -244z" />
    <glyph glyph-name="r" unicode="r" horiz-adv-x="830" 
d="M56 0l183 731q18 74 18 102q0 35 -42 41q-31 4 -86 4l14 54q186 9 337 49q1 -26 1 -39q0 -83 -23 -173q52 81 96 124q86 83 196 83q67 0 108 -38q43 -40 43 -105q0 -67 -42 -113q-36 -39 -89 -39q-59 0 -85 39q-16 23 -16 50q0 44 42 69q-10 33 -47 33q-73 0 -143 -129
q-42 -77 -95 -291l-113 -452h-257z" />
    <glyph glyph-name="s" unicode="s" horiz-adv-x="917" 
d="M35 116l49 230h58q-2 -47 -2 -65q0 -108 60 -169q63 -64 160 -64q94 0 154 58q58 57 58 140q0 54 -28 87q-26 32 -91 70q-147 88 -211 144q-70 62 -70 160q0 123 108 207q103 79 259 79q89 0 190 -38q45 -17 70 -17t80 29l-59 -277h-62q2 26 2 42q0 86 -47 136
q-50 53 -136 53q-74 0 -129 -42q-52 -39 -52 -97q0 -39 24 -66q25 -28 73 -57q153 -91 219 -144q99 -78 99 -189q0 -117 -82 -211q-120 -140 -349 -140q-150 0 -258 71q-36 23 -87 70z" />
    <glyph glyph-name="t" unicode="t" horiz-adv-x="657" 
d="M120 192q0 59 34 197l122 500h-125l19 73q116 3 216 88q98 86 157 221h79l-76 -306h192l-19 -76h-192l-117 -511q-35 -155 -35 -198q0 -42 25 -67q21 -22 51 -22q46 0 124 53l-21 -83q-113 -79 -229 -79q-94 0 -152 60q-53 55 -53 150z" />
    <glyph glyph-name="u" unicode="u" horiz-adv-x="1196" 
d="M117 195q0 51 18 125l104 415q19 75 19 98q0 38 -47 44q-29 4 -76 4l13 54q210 15 415 71l-175 -704q-19 -76 -19 -111q0 -34 16 -61q27 -43 85 -43q113 0 187 142q35 66 72 215l131 525q129 1 262 21l-150 -600q-44 -180 -44 -223q0 -33 16 -51q16 -17 37 -17
q48 0 88 62q11 18 31 61l56 -24q-94 -216 -269 -216q-104 0 -157 66q-28 34 -39 102q-64 -71 -120 -108q-92 -60 -207 -60q-131 0 -197 74q-50 56 -50 139z" />
    <glyph glyph-name="v" unicode="v" horiz-adv-x="966" 
d="M60 915l14 58q167 -12 259 -12q89 0 262 12l-15 -58q-70 -4 -86 -9q-33 -12 -33 -51q0 -21 2 -44l56 -513l293 464q2 3 15 24q41 62 41 90q0 48 -63 48q-7 0 -29 -2l-13 55q182 22 256 69q11 -33 11 -52q0 -42 -26 -86q-13 -22 -139 -213l-488 -725h-49l-136 779
q-18 105 -30 124q-16 28 -50 36q-15 4 -52 6z" />
    <glyph glyph-name="w" unicode="w" horiz-adv-x="1454" 
d="M75 916l14 58q171 -10 251 -10q78 0 253 10l-14 -58q-55 -3 -76 -12q-39 -19 -39 -82q0 -13 6 -108l21 -388l416 678h65l76 -689l269 466q35 61 35 93q0 50 -71 50q-13 0 -32 -1l-11 55q178 21 257 70q16 -43 16 -65q0 -33 -19 -68q-5 -9 -94 -155l-482 -789h-58l-75 703
l-433 -703h-54l-85 743q-13 111 -20 132q-17 55 -80 67q-8 1 -36 3z" />
    <glyph glyph-name="x" unicode="x" horiz-adv-x="1047" 
d="M-106 -7l14 58q80 11 133 54q42 37 125 117l234 222l-125 370q-17 51 -46 76q-28 23 -88 26l14 58q149 -12 283 -12q112 0 201 12l-14 -61l-13 -3q-43 -11 -56 -24q-16 -18 -16 -40q0 -16 20 -73l52 -149l155 171q65 71 65 96t-27 29q-13 3 -45 3l-7 54q124 14 249 70
q3 -23 3 -34q0 -64 -55 -130q-15 -19 -62 -65q-44 -43 -59 -58l-196 -201l95 -279q19 -53 39 -104q30 -77 82 -77q39 0 71 37q22 26 52 77l53 -29q-45 -85 -90 -126q-88 -80 -213 -80q-132 0 -188 101q-24 44 -58 143l-52 153l-221 -215q-49 -47 -49 -75q0 -18 14 -25
q12 -6 52 -9l-15 -58q-94 8 -153 8q-58 0 -158 -8z" />
    <glyph glyph-name="y" unicode="y" horiz-adv-x="925" 
d="M-167 -266q62 -26 116 -26q102 0 190 92q77 80 142 173l42 61l-143 745q-16 82 -38 105q-25 26 -89 32l14 58q141 -10 255 -10q115 0 260 10l-14 -58q-67 -5 -88 -13q-35 -13 -35 -47q0 -7 6 -46l73 -482l287 432q11 17 23 34q41 59 41 90q0 41 -64 41q-11 0 -30 -2
l-9 54q77 10 124 22q56 13 118 47q11 -45 11 -64q0 -43 -26 -86q-11 -20 -131 -196l-551 -802q-42 -61 -100 -131.5t-85 -93.5q-97 -83 -251 -83q-16 0 -48 1v143z" />
    <glyph glyph-name="z" unicode="z" horiz-adv-x="874" 
d="M-90 0l831 817q-143 -87 -235 -87q-43 0 -112 23q-65 21 -96 21q-91 0 -106 -117h-64q7 115 58 195q39 61 95 95q60 37 125 37q50 0 169 -38q114 -37 172 -37q74 0 153 60h88l-822 -807q126 86 243 86q53 0 154 -30q28 -8 52 -8q56 0 96.5 34.5t62.5 99.5h61
q-16 -121 -88 -216q-107 -139 -289 -139q-57 0 -128 18q-16 4 -127 37q-51 15 -84 15q-55 0 -121 -59h-88z" />
    <glyph glyph-name="braceleft" unicode="{" horiz-adv-x="683" 
d="M83 -284q0 48 16 113l121 486q10 39 10 69q0 47 -32 79q-22 22 -60 44q73 30 107 59q49 45 71 133l110 439q25 99 53 140q44 66 111 93.5t188 27.5h57q-88 -20 -142 -81q-39 -47 -64 -150l-106 -425q-45 -192 -201 -236q46 -27 65 -48q31 -34 31 -88q0 -48 -13 -100
l-121 -486q-13 -52 -13 -83q0 -103 135 -134h-85q-110 0 -159 22q-79 35 -79 126z" />
    <glyph glyph-name="bar" unicode="|" horiz-adv-x="1024" 
d="M439 -341v1706h147v-1706h-147z" />
    <glyph glyph-name="braceright" unicode="}" horiz-adv-x="683" 
d="M-143 -432q88 19 142 81q39 47 65 149l106 426q45 192 201 236q-47 27 -65 47q-32 35 -32 89q0 46 13 99l121 486q13 51 13 84q0 102 -135 134h85q110 0 159 -22q79 -36 79 -126q0 -50 -16 -113l-121 -486q-10 -41 -10 -70q0 -47 32 -79q22 -21 61 -43q-74 -31 -107 -60
q-50 -45 -72 -133l-109 -438q-26 -99 -54 -140q-43 -67 -110 -94t-188 -27h-58z" />
    <glyph glyph-name="asciitilde" unicode="~" horiz-adv-x="1365" 
d="M284 1269q121 211 278 211q54 0 177 -43q110 -39 163 -39q101 0 185 104l35 -23q-41 -78 -109 -138q-80 -70 -167 -70q-38 0 -94 17q-12 4 -82 28q-121 40 -177 40q-69 0 -116 -47q-13 -12 -58 -62z" />
    <glyph glyph-name="uni00A0" unicode="&#xa0;" horiz-adv-x="512" 
 />
    <glyph glyph-name="exclamdown" unicode="&#xa1;" horiz-adv-x="572" 
d="M-69 -394l292 904h140l-151 -904h-281zM192 794q0 94 72 152q54 44 120 44q55 0 93 -34q41 -37 41 -91q0 -91 -74 -152q-56 -47 -120 -47q-58 0 -95 37t-37 91z" />
    <glyph glyph-name="cent" unicode="&#xa2;" 
d="M197 528q0 170 80 334q107 216 302 299q92 39 195 38l39 158h79l-42 -166q47 -10 100 -33q48 -21 74 -21q24 0 63 28l-74 -351h-60q10 52 10 95q0 189 -128 220l-215 -865q98 -1 177 79q74 78 105 185h91q-117 -329 -394 -348l-43 -172h-79l43 172q-105 9 -174 50
q-65 40 -102 106q-47 83 -47 192zM443 488q0 -149 102 -207l212 849q-102 -49 -168 -158q-70 -116 -111 -260q-35 -126 -35 -224z" />
    <glyph glyph-name="sterling" unicode="&#xa3;" 
d="M-40 0q82 86 134 196q35 68 113 282l66 183h-148l20 81h158l50 130q98 259 226 373q159 143 356 143q264 0 264 -256q0 -32 -4 -77h-102q4 44 4 67q0 175 -142 175q-129 0 -218 -135q-44 -67 -124 -277l-55 -143h253l-20 -81h-264l-49 -128q-62 -158 -138 -255
q-67 -87 -165 -165q178 70 268 70q50 0 143 -23q80 -19 120 -19q87 0 158 73q40 41 93 150h66q-50 -225 -180 -310q-84 -54 -257 -54h-626z" />
    <glyph glyph-name="currency" unicode="&#xa4;" horiz-adv-x="1365" 
d="M143 1176l103 102l200 -199q143 100 293 100q149 0 289 -99l199 197l102 -102l-198 -197q101 -144 101 -291q0 -145 -98 -286l199 -199l-101 -103l-199 199q-138 -100 -292 -100q-145 0 -294 100l-199 -199l-101 102l197 199q-99 131 -99 289q0 148 100 286zM415 688
q0 -134 95 -229t228 -95q134 0 230 95q94 95 94 228q0 138 -94 231q-97 95 -233 95q-130 0 -226 -96q-94 -94 -94 -229z" />
    <glyph glyph-name="yen" unicode="&#xa5;" 
d="M153 588l20 79h309l-33 150h-239l20 79h201l-36 160q-24 108 -35 138q-30 76 -95 94q-15 5 -49 8l15 76q143 -15 287 -15q148 0 299 15l-19 -76q-50 -2 -79 -8q-73 -14 -73 -69q0 -20 9 -66l90 -477l293 424q77 112 77 151q0 48 -78 48q-12 0 -33 -2l-8 68q188 12 297 68
q7 -34 7 -55q0 -38 -16 -69q-17 -34 -54 -83q-54 -72 -130 -179l-110 -151h168l-20 -79h-205l-109 -150h277l-20 -79h-315l-93 -376q-14 -55 -14 -81q0 -42 52 -54q24 -6 83 -8l-19 -76q-171 15 -296 15t-300 -15l18 76q89 2 127 16q41 15 60 59q11 24 23 68l93 376h-347z
" />
    <glyph glyph-name="brokenbar" unicode="&#xa6;" horiz-adv-x="1024" 
d="M439 314h147v-655h-147v655zM439 665v700h147v-700h-147z" />
    <glyph glyph-name="section" unicode="&#xa7;" horiz-adv-x="1024" 
d="M-12 -50q0 40 9 92h91q-3 -47 -3 -72q0 -121 76 -179q63 -48 152 -48q83 0 140 35q52 33 80 93q22 46 22 97q0 52 -29 91q-21 29 -77 69l-206 146q-127 91 -127 220q0 128 95 220q48 46 154 97q-86 88 -86 191q0 134 115 233q136 119 321 119q175 0 262 -103
q53 -64 53 -178q0 -44 -9 -95h-91q7 48 7 79q0 64 -23 110q-44 85 -161 85q-108 0 -177 -81q-48 -57 -48 -120q0 -59 37 -99q24 -25 91 -72l144 -98q70 -48 101 -91q42 -60 42 -135q0 -128 -106 -226q-62 -57 -152 -96q115 -87 115 -205q0 -159 -131 -268
q-128 -107 -331 -107q-214 0 -299 122q-51 72 -51 174zM268 604q0 -68 96 -139l258 -191q160 57 160 168q0 68 -86 130l-273 198q-155 -67 -155 -166z" />
    <glyph glyph-name="dieresis" unicode="&#xa8;" horiz-adv-x="1024" 
d="M367 1227q0 83 66 137q51 42 110 42q50 0 84 -34q33 -32 33 -82q0 -81 -65 -136q-47 -39 -106 -39q-51 0 -85 31q-37 33 -37 81zM760 1227q0 83 66 137q51 42 110 42q50 0 84 -34q33 -32 33 -82q0 -81 -65 -136q-47 -39 -105 -39q-52 0 -86 31q-37 33 -37 81z" />
    <glyph glyph-name="copyright" unicode="&#xa9;" horiz-adv-x="1596" 
d="M147 681q0 200 104 371q101 167 281 259q150 77 329 77q190 0 360 -104t260 -281q77 -151 77 -320q0 -141 -53.5 -270.5t-153.5 -228.5q-99 -100 -228.5 -153.5t-270.5 -53.5q-140 0 -269.5 53.5t-228.5 153.5q-99 99 -153 228.5t-54 268.5zM224 682q0 -260 184 -444
t444 -184q261 0 445 184t184 443q0 126 -48.5 243.5t-135.5 202.5q-189 184 -452 184q-120 0 -234.5 -48.5t-202.5 -135.5t-136 -203.5t-48 -241.5zM481 681q0 169 76 279q105 152 307 152q134 0 223 -85l41 85h35v-288h-49q-18 82 -49 131q-58 94 -179 94q-222 0 -222 -346
q0 -163 48 -253q53 -98 183 -98q131 0 192 92q34 49 39 127h52q-3 -107 -49 -181q-87 -137 -272 -137q-84 0 -159 33t-124 92q-93 111 -93 303z" />
    <glyph glyph-name="ordfeminine" unicode="&#xaa;" horiz-adv-x="752" 
d="M155 614l17 66h557l-16 -66h-558zM205 987q0 86 43 181q52 117 145 180q74 49 158 49q103 0 115 -79l20 67q82 1 168 13l-104 -364q-31 -110 -31 -133q0 -36 29 -36q34 0 73 74l41 -17q-65 -134 -174 -134q-97 0 -119 100q-64 -100 -165 -100q-91 0 -145 56
q-54 57 -54 143zM362 918q0 -33 12 -56q17 -32 52 -32q73 0 130 134q29 69 52.5 163t23.5 141q0 87 -69 87q-35 0 -63 -30t-61 -103t-55 -159.5t-22 -144.5z" />
    <glyph glyph-name="guillemotleft" unicode="&#xab;" horiz-adv-x="903" 
d="M91 489l409 478h65l-261 -478l20 -489h-57zM439 489l404 478h70l-266 -478l24 -489h-61z" />
    <glyph glyph-name="logicalnot" unicode="&#xac;" horiz-adv-x="1024" 
d="M68 440v106h888v-546h-247v440h-641z" />
    <glyph glyph-name="uni00AD" unicode="&#xad;" horiz-adv-x="449" 
d="M-17 398l51 205h450l-52 -205h-449z" />
    <glyph glyph-name="registered" unicode="&#xae;" horiz-adv-x="1596" 
d="M147 681q0 200 104 371q101 167 281 259q150 77 329 77q190 0 360 -104t260 -281q77 -151 77 -320q0 -141 -53.5 -270.5t-153.5 -228.5q-99 -100 -228.5 -153.5t-270.5 -53.5q-140 0 -269.5 53.5t-228.5 153.5q-99 99 -153 228.5t-54 268.5zM224 682q0 -260 184 -444
t444 -184q261 0 445 184t184 443q0 126 -48.5 243.5t-135.5 202.5q-189 184 -452 184q-120 0 -234.5 -48.5t-202.5 -135.5t-136 -203.5t-48 -241.5zM481 269v54q60 3 79 10q21 8 25 32q3 13 3 39v554q0 41 -8 55q-14 24 -99 25v54h377q134 0 203 -41q48 -29 76 -79t28 -105
q0 -54 -26 -100t-71 -71q-27 -15 -92 -36q40 -18 55 -34q25 -26 51 -79l70 -143q29 -61 55 -72q18 -8 51 -9v-54q-77 4 -111 4q-33 0 -109 -3l-129 273q-31 64 -50 77q-28 19 -73 19h-26v-235q0 -42 8 -55q15 -23 99 -26v-54q-101 9 -188 9q-88 0 -198 -9zM764 694h62
q82 0 118 37q45 45 45 133q0 173 -154 173h-71v-343z" />
    <glyph glyph-name="macron" unicode="&#xaf;" horiz-adv-x="1024" 
d="M345 1181l31 125h705l-31 -125h-705z" />
    <glyph glyph-name="degree" unicode="&#xb0;" horiz-adv-x="1024" 
d="M374 1107q0 122 87 205q89 86 214 86q120 0 208 -85q87 -84 87 -206q0 -120 -86 -205q-88 -87 -212 -87t-211 86t-87 206zM490 1107q0 -75 53 -126q54 -53 129 -53t129 53q53 52 53 125q0 76 -53 127q-55 52 -131 52q-73 0 -127 -53q-53 -51 -53 -125z" />
    <glyph glyph-name="plusminus" unicode="&#xb1;" 
d="M82 6v170h918v-170h-918zM82 604v170h368v366h183v-366h367v-170h-367v-326h-183v326h-368z" />
    <glyph glyph-name="uni00B2" unicode="&#xb2;" horiz-adv-x="729" 
d="M118 532l29 116q193 158 339 295q127 119 127 203q0 42 -31 66q-28 21 -72 21q-118 0 -183 -137h-66q42 113 102 168q87 80 221 80q79 0 131 -30q75 -45 75 -133q0 -98 -104 -202q-79 -79 -358 -288l-22 -16h373l-60 -143h-501z" />
    <glyph glyph-name="uni00B3" unicode="&#xb3;" horiz-adv-x="729" 
d="M159 765h63q41 -136 173 -136q79 0 126 61q39 50 39 110q0 86 -85 108q-37 10 -107 10l15 58q104 1 148 26q81 46 81 134q0 43 -29 71q-30 29 -77 29q-97 0 -161 -126h-62q37 111 88 160q77 74 189 74q93 0 153 -50q63 -54 63 -137q0 -151 -202 -199q151 -40 151 -172
q0 -110 -85 -189q-84 -78 -216 -78q-131 0 -204 81q-55 61 -61 165z" />
    <glyph glyph-name="acute" unicode="&#xb4;" horiz-adv-x="1024" 
d="M583 1117l193 285h378l-480 -285h-91z" />
    <glyph glyph-name="mu" unicode="&#xb5;" horiz-adv-x="940" 
d="M12 -293q0 47 16 131q59 340 60 703v396h196v-588q0 -116 16 -166q34 -107 141 -107q73 0 139 53q31 26 77 90v718h194v-685q0 -92 13 -123q17 -39 69 -39q26 0 60 17v-35l-205 -93q-4 -2 -10 -2q-19 0 -40.5 12.5t-31.5 30.5q-14 23 -37 117q-78 -77 -114 -105
q-84 -63 -178 -63q-119 0 -182 88q-21 30 -42 90q0 -114 6 -161q5 -30 35 -171q15 -72 15 -108q0 -34 -21 -63q-27 -38 -77 -38q-59 0 -85 48q-14 25 -14 53z" />
    <glyph glyph-name="paragraph" unicode="&#xb6;" horiz-adv-x="1107" 
d="M141 892q0 151 92 281q94 134 238 169q96 23 259 23h548l-19 -75q-87 -2 -126 -16q-41 -15 -60 -59q-11 -22 -23 -69l-359 -1440h-175l358 1434q19 82 19 97q0 46 -71 46q-56 0 -80 -34q-16 -22 -37 -105l-358 -1438h-175l226 906q-107 17 -163 61q-94 72 -94 219z" />
    <glyph glyph-name="periodcentered" unicode="&#xb7;" horiz-adv-x="529" 
d="M113 473q0 80 58 137q59 60 135 60q58 0 95 -37t37 -93q0 -73 -52 -130q-57 -63 -138 -63q-57 0 -94 34q-41 36 -41 92z" />
    <glyph glyph-name="cedilla" unicode="&#xb8;" horiz-adv-x="1024" 
d="M190 -368l17 64q66 -20 107 -20q60 0 90 38q20 26 20 57q0 70 -109 70q-7 0 -20 -1l133 160h95l-89 -106q146 -2 146 -110q0 -83 -73 -138q-65 -50 -158 -50q-67 0 -159 36z" />
    <glyph glyph-name="uni00B9" unicode="&#xb9;" horiz-adv-x="729" 
d="M184 528l13 54q69 2 95 12q27 11 40 42q9 19 17 51l125 503l-130 -9l12 52q92 7 162.5 40.5t119.5 91.5h52l-175 -702q-7 -28 -7 -41q0 -31 51 -37q19 -2 56 -3l-13 -54q-117 9 -207 9q-89 0 -211 -9z" />
    <glyph glyph-name="ordmasculine" unicode="&#xba;" horiz-adv-x="694" 
d="M105 614l17 66h557l-16 -66h-558zM213 1018q0 138 90 252q102 128 271 128q100 0 159 -54q64 -58 64 -161q0 -158 -85 -266q-101 -128 -263 -128q-102 0 -162 53q-74 63 -74 176zM370 947q0 -56 26 -88q22 -28 60 -28q76 0 126 131q58 153 58 291q0 103 -77 103
q-45 0 -80 -42q-41 -50 -82 -193q-31 -108 -31 -174z" />
    <glyph glyph-name="guillemotright" unicode="&#xbb;" horiz-adv-x="903" 
d="M-1 0l265 478l-24 489h62l171 -489l-404 -478h-70zM347 0l260 478l-19 489h57l176 -489l-409 -478h-65z" />
    <glyph glyph-name="onequarter" unicode="&#xbc;" horiz-adv-x="1638" 
d="M184 528l13 54q69 2 95 12q27 11 40 42q9 19 17 51l125 503l-130 -9l12 52q92 7 162.5 40.5t119.5 91.5h52l-175 -702q-7 -28 -7 -41q0 -31 51 -37q19 -2 56 -3l-13 -54q-117 9 -207 9q-89 0 -211 -9zM310 0l1012 1332h106l-1012 -1332h-106zM864 178l4 17l498 604h181
l-117 -497h130l-31 -124h-125l-50 -198h-168l50 198h-372zM1037 302h233l107 430z" />
    <glyph glyph-name="onehalf" unicode="&#xbd;" horiz-adv-x="1638" 
d="M184 528l13 54q69 2 95 12q27 11 40 42q9 19 17 51l125 503l-130 -9l12 52q92 7 162.5 40.5t119.5 91.5h52l-175 -702q-7 -28 -7 -41q0 -31 51 -37q19 -2 56 -3l-13 -54q-117 9 -207 9q-89 0 -211 -9zM310 0l1012 1332h106l-1012 -1332h-106zM895 0l29 116
q191 155 340 295q127 119 127 203q0 42 -31 66q-28 21 -72 21q-118 0 -183 -137h-67q43 114 102 168q88 81 221 81q80 0 132 -30q75 -45 75 -133q0 -100 -104 -203q-83 -81 -359 -288l-21 -16h372l-59 -143h-502z" />
    <glyph glyph-name="threequarters" unicode="&#xbe;" horiz-adv-x="1638" 
d="M159 765h63q41 -136 173 -136q79 0 126 61q39 50 39 110q0 86 -85 108q-37 10 -107 10l15 58q104 1 148 26q81 46 81 134q0 43 -29 71q-30 29 -77 29q-97 0 -161 -126h-62q37 111 88 160q77 74 189 74q93 0 153 -50q63 -54 63 -137q0 -151 -202 -199q151 -40 151 -172
q0 -110 -85 -189q-84 -78 -216 -78q-131 0 -204 81q-55 61 -61 165zM310 0l1012 1332h106l-1012 -1332h-106zM864 178l4 17l498 604h182l-118 -497h130l-31 -124h-125l-50 -198h-167l49 198h-372zM1037 302h233l108 430z" />
    <glyph glyph-name="questiondown" unicode="&#xbf;" horiz-adv-x="853" 
d="M-63 -144q0 144 107 242q46 42 96 72l169 99q116 68 158 124q25 36 45 123h90q-14 -127 -48 -197q-28 -65 -199 -207q-89 -72 -109 -97q-47 -58 -47 -122q0 -65 39 -105q38 -39 104 -39q93 0 167 73q46 46 77 123h88q-41 -154 -137 -244q-125 -118 -303 -118
q-144 0 -225 83q-72 74 -72 190zM458 795q0 93 72 151q53 44 119 44q55 0 93 -34q41 -37 41 -92q0 -90 -74 -151q-55 -47 -120 -47q-58 0 -95 37q-36 37 -36 92z" />
    <glyph glyph-name="Agrave" unicode="&#xc0;" horiz-adv-x="1353" 
d="M-94 -7l19 76q50 4 77 9q65 15 125 92q21 27 76 112l748 1137h28l115 -1205q9 -88 56 -121q34 -20 112 -24l-19 -76q-152 15 -296 15q-145 0 -305 -15l19 76q100 5 122 16q37 19 37 70q0 8 -2 42l-10 173h-450l-94 -145q-47 -74 -47 -106t37 -41q22 -6 86 -9l-19 -76
q-130 10 -205 10q-74 0 -210 -10zM410 448h390l-30 556zM589 1770h392l71 -258h-77z" />
    <glyph glyph-name="Aacute" unicode="&#xc1;" horiz-adv-x="1353" 
d="M-94 -7l19 76q50 4 77 9q65 15 125 92q21 27 76 112l748 1137h28l115 -1205q9 -88 56 -121q34 -20 112 -24l-19 -76q-152 15 -296 15q-145 0 -305 -15l19 76q100 5 122 16q37 19 37 70q0 8 -2 42l-10 173h-450l-94 -145q-47 -74 -47 -106t37 -41q22 -6 86 -9l-19 -76
q-130 10 -205 10q-74 0 -210 -10zM410 448h390l-30 556zM865 1512l200 258h392l-501 -258h-91z" />
    <glyph glyph-name="Acircumflex" unicode="&#xc2;" horiz-adv-x="1353" 
d="M-94 -7l19 76q50 4 77 9q65 15 125 92q21 27 76 112l748 1137h28l115 -1205q9 -88 56 -121q34 -20 112 -24l-19 -76q-152 15 -296 15q-145 0 -305 -15l19 76q100 5 122 16q37 19 37 70q0 8 -2 42l-10 173h-450l-94 -145q-47 -74 -47 -106t37 -41q22 -6 86 -9l-19 -76
q-130 10 -205 10q-74 0 -210 -10zM410 448h390l-30 556zM573 1502l445 306h19l274 -306h-85l-243 127l-308 -127h-102z" />
    <glyph glyph-name="Atilde" unicode="&#xc3;" horiz-adv-x="1353" 
d="M-94 -7l19 76q50 4 77 9q65 15 125 92q21 27 76 112l748 1137h28l115 -1205q9 -88 56 -121q34 -20 112 -24l-19 -76q-152 15 -296 15q-145 0 -305 -15l19 76q100 5 122 16q37 19 37 70q0 8 -2 42l-10 173h-450l-94 -145q-47 -74 -47 -106t37 -41q22 -6 86 -9l-19 -76
q-130 10 -205 10q-74 0 -210 -10zM410 448h390l-30 556zM609 1547q67 106 106 145q77 77 162 77q61 0 139 -47q83 -50 120 -50q52 0 96 39q22 19 60 64l61 -18q-66 -118 -132 -177q-67 -60 -150 -60q-44 0 -85 21q-19 9 -82 47q-52 31 -90 31q-71 0 -144 -92z" />
    <glyph glyph-name="Adieresis" unicode="&#xc4;" horiz-adv-x="1353" 
d="M-94 -7l19 76q50 4 77 9q65 15 125 92q21 27 76 112l748 1137h28l115 -1205q9 -88 56 -121q34 -20 112 -24l-19 -76q-152 15 -296 15q-145 0 -305 -15l19 76q100 5 122 16q37 19 37 70q0 8 -2 42l-10 173h-450l-94 -145q-47 -74 -47 -106t37 -41q22 -6 86 -9l-19 -76
q-130 10 -205 10q-74 0 -210 -10zM410 448h390l-30 556zM620 1616q0 87 69 144q54 44 115 44q53 0 89 -35q34 -35 34 -87q0 -85 -68 -142q-49 -41 -111 -41q-54 0 -89 32q-39 35 -39 85zM1033 1616q0 87 70 144q53 44 114 44q54 0 89 -35q34 -35 34 -87q0 -85 -68 -142
q-49 -41 -111 -41q-54 0 -89 32q-39 35 -39 85z" />
    <glyph glyph-name="Aring" unicode="&#xc5;" horiz-adv-x="1353" 
d="M-94 -7l19 76q50 4 77 9q65 15 125 92q21 27 76 112l748 1137h28l115 -1205q9 -88 56 -121q34 -20 112 -24l-19 -76q-152 15 -296 15q-145 0 -305 -15l19 76q100 5 122 16q37 19 37 70q0 8 -2 42l-10 173h-450l-94 -145q-47 -74 -47 -106t37 -41q22 -6 86 -9l-19 -76
q-130 10 -205 10q-74 0 -210 -10zM410 448h390l-30 556zM795 1670q0 77 54 129q55 54 132 54q73 0 127 -54q53 -53 53 -129t-53 -129q-54 -54 -130 -54t-129 54q-54 53 -54 129zM883 1670q0 -40 28 -67q28 -28 67 -28t67 28q28 27 28 66q0 40 -28 67q-28 28 -68 28
q-39 0 -66 -28q-28 -27 -28 -66z" />
    <glyph glyph-name="AE" unicode="&#xc6;" horiz-adv-x="1852" 
d="M-108 -7l19 76q71 4 119 32q44 27 83 70q22 25 66 79l907 1115h831l-34 -360h-63q1 36 1 55q0 158 -75 202q-42 25 -152 25h-211l-131 -527h412l-23 -93h-412l-120 -481q-11 -43 -11 -63q0 -45 95 -45h127q110 1 179 46q69 44 149 157q31 43 61 99h63l-158 -380h-984
l19 76q85 3 121 16q39 15 59 59q11 25 22 69l57 228h-472l-190 -243q-50 -63 -50 -93q0 -27 31 -35q20 -5 81 -8l-19 -76q-113 8 -196 8t-201 -8zM500 526h427l208 777h-14z" />
    <glyph glyph-name="Ccedilla" unicode="&#xc7;" horiz-adv-x="1236" 
d="M111 469q0 179 61 356q86 256 267 412q187 161 437 161q91 0 173 -23q35 -11 123 -53q46 -22 74 -22q27 0 83 31l-86 -403h-66q0 130 -19 191q-59 190 -252 190q-236 0 -391 -295q-70 -133 -108 -298q-31 -135 -31 -258q0 -187 100 -277q70 -64 193 -64q207 0 332 159
q66 84 102 211h73q-48 -267 -238 -416q-113 -84 -277 -102l-68 -82q156 -2 156 -117q0 -87 -77 -146q-70 -53 -170 -53q-72 0 -168 37l19 75q72 -21 112 -21q57 0 90 39q22 26 22 57q0 72 -113 72h-18l117 137q-168 18 -260 81q-192 131 -192 421z" />
    <glyph glyph-name="Egrave" unicode="&#xc8;" horiz-adv-x="1167" 
d="M-59 0l19 76q87 3 123 16q39 15 58 59q12 25 23 69l231 926q13 52 13 79q0 44 -56 56q-30 6 -89 8l19 76h946l-33 -360h-64q1 35 1 53q0 161 -76 203q-47 26 -151 26h-209l-133 -533h411l-23 -93h-411l-112 -448q-15 -67 -15 -83q0 -52 103 -52h105q125 1 193 46
q69 43 149 157q32 44 61 99h63l-158 -380h-988zM495 1770h392l71 -258h-77z" />
    <glyph glyph-name="Eacute" unicode="&#xc9;" horiz-adv-x="1167" 
d="M-59 0l19 76q87 3 123 16q39 15 58 59q12 25 23 69l231 926q13 52 13 79q0 44 -56 56q-30 6 -89 8l19 76h946l-33 -360h-64q1 35 1 53q0 161 -76 203q-47 26 -151 26h-209l-133 -533h411l-23 -93h-411l-112 -448q-15 -67 -15 -83q0 -52 103 -52h105q125 1 193 46
q69 43 149 157q32 44 61 99h63l-158 -380h-988zM663 1512l200 258h392l-501 -258h-91z" />
    <glyph glyph-name="Ecircumflex" unicode="&#xca;" horiz-adv-x="1167" 
d="M-59 0l19 76q87 3 123 16q39 15 58 59q12 25 23 69l231 926q13 52 13 79q0 44 -56 56q-30 6 -89 8l19 76h946l-33 -360h-64q1 35 1 53q0 161 -76 203q-47 26 -151 26h-209l-133 -533h411l-23 -93h-411l-112 -448q-15 -67 -15 -83q0 -52 103 -52h105q125 1 193 46
q69 43 149 157q32 44 61 99h63l-158 -380h-988zM439 1502l445 306h19l274 -306h-85l-243 127l-308 -127h-102z" />
    <glyph glyph-name="Edieresis" unicode="&#xcb;" horiz-adv-x="1167" 
d="M-59 0l19 76q87 3 123 16q39 15 58 59q12 25 23 69l231 926q13 52 13 79q0 44 -56 56q-30 6 -89 8l19 76h946l-33 -360h-64q1 35 1 53q0 161 -76 203q-47 26 -151 26h-209l-133 -533h411l-23 -93h-411l-112 -448q-15 -67 -15 -83q0 -52 103 -52h105q125 1 193 46
q69 43 149 157q32 44 61 99h63l-158 -380h-988zM479 1616q0 87 69 144q54 44 115 44q53 0 89 -35q34 -35 34 -87q0 -85 -68 -142q-49 -41 -111 -41q-54 0 -89 32q-39 35 -39 85zM892 1616q0 87 70 144q53 44 114 44q54 0 89 -35q34 -35 34 -87q0 -85 -68 -142
q-49 -41 -111 -41q-54 0 -89 32q-39 35 -39 85z" />
    <glyph glyph-name="Igrave" unicode="&#xcc;" horiz-adv-x="715" 
d="M-61 -7l19 76q86 2 123 16q39 15 58 59q11 24 23 68l234 941q12 47 12 81q0 42 -56 54q-29 7 -88 8l19 76q166 -15 297 -15q132 0 301 15l-19 -76q-83 -2 -120 -16q-38 -14 -57 -58q-11 -23 -23 -69l-234 -941q-12 -47 -12 -80q0 -43 54 -55q26 -6 86 -8l-19 -76
q-164 15 -293 15t-305 -15zM270 1772h392l71 -258h-77z" />
    <glyph glyph-name="Iacute" unicode="&#xcd;" horiz-adv-x="715" 
d="M-61 -7l19 76q86 2 123 16q39 15 58 59q11 24 23 68l234 941q12 47 12 80q0 43 -56 55q-29 7 -88 8l19 76q166 -15 297 -15q132 0 301 15l-19 -76q-83 -2 -120 -16q-38 -14 -57 -58q-11 -23 -23 -69l-234 -941q-12 -47 -12 -80q0 -43 54 -55q26 -6 86 -8l-19 -76
q-164 15 -293 15t-305 -15zM519 1512l186 258h371l-466 -258h-91z" />
    <glyph glyph-name="Icircumflex" unicode="&#xce;" horiz-adv-x="715" 
d="M-61 -7l19 76q86 2 123 16q39 15 58 59q11 24 23 68l234 941q12 47 12 80q0 43 -56 55q-29 7 -88 8l19 76q166 -15 297 -15q132 0 301 15l-19 -76q-83 -2 -120 -16q-38 -14 -57 -58q-11 -23 -23 -69l-234 -941q-12 -47 -12 -80q0 -43 54 -55q26 -6 86 -8l-19 -76
q-164 15 -293 15t-305 -15zM254 1502l418 306h19l246 -306h-84l-217 127l-280 -127h-102z" />
    <glyph glyph-name="Idieresis" unicode="&#xcf;" horiz-adv-x="715" 
d="M-61 -7l19 76q86 2 123 16q39 15 58 59q11 24 23 68l234 941q12 47 12 80q0 43 -56 55q-29 7 -88 8l19 76q166 -15 297 -15q132 0 301 15l-19 -76q-83 -2 -120 -16q-38 -14 -57 -58q-11 -23 -23 -69l-234 -941q-12 -47 -12 -80q0 -43 54 -55q26 -6 86 -8l-19 -76
q-164 15 -293 15t-305 -15zM317 1614q0 82 66 136q51 42 109 42q51 0 84 -33t33 -83q0 -81 -65 -135q-46 -39 -105 -39q-52 0 -85 30q-37 33 -37 82zM682 1614q0 82 66 136q51 42 109 42q51 0 84 -33t33 -83q0 -81 -65 -135q-46 -39 -105 -39q-52 0 -85 30q-37 33 -37 82z
" />
    <glyph glyph-name="Eth" unicode="&#xd0;" horiz-adv-x="1369" 
d="M-59 0l19 76q86 2 123 16q39 15 58 58q12 25 23 69l114 458h-168l20 82h168l97 386q13 53 13 79q0 45 -57 57q-29 6 -88 8l19 76h552q168 0 257 -27q140 -41 212 -170q62 -110 62 -281q0 -239 -104 -445q-110 -219 -306 -330.5t-471 -111.5h-543zM411 127q0 -51 83 -51
q118 0 198.5 27.5t137.5 86.5q132 138 213 414q57 195 57 383q0 192 -93 259q-56 41 -200 41h-111l-131 -528h247l-20 -82h-248l-120 -481q-13 -53 -13 -69z" />
    <glyph glyph-name="Ntilde" unicode="&#xd1;" horiz-adv-x="1372" 
d="M-72 -7l19 76q77 8 111 26q51 27 80 106q31 83 105 383l27 106l131 527q-31 38 -58 55q-35 21 -93 24l19 76q108 -7 191 -7q82 0 193 7l416 -932l174 699q16 64 16 95q0 42 -55 54q-29 7 -88 8l19 76q112 -7 204 -7t207 7l-19 -76q-86 -2 -122 -17q-55 -25 -84 -140
l-293 -1173h-35l-527 1200l-224 -899q-23 -92 -23 -127q0 -51 53 -63q25 -6 86 -8l-19 -76q-113 8 -204 8q-92 0 -207 -8zM610 1547q67 106 106 145q77 77 162 77q61 0 139 -47q83 -50 120 -50q52 0 96 39q22 19 60 64l61 -18q-66 -118 -132 -177q-67 -60 -150 -60
q-44 0 -85 21q-19 9 -82 47q-52 31 -90 31q-71 0 -144 -92z" />
    <glyph glyph-name="Ograve" unicode="&#xd2;" horiz-adv-x="1328" 
d="M111 456q0 232 95 453q118 273 330 399q152 90 337 90q198 0 324 -118q132 -123 132 -365q0 -192 -64 -380q-95 -279 -298 -435q-174 -133 -391 -133q-205 0 -330 115q-135 125 -135 374zM375 327q0 -131 49 -211q50 -83 157 -83q201 0 343 347q70 169 109 370
q30 155 30 285q0 297 -208 297q-190 0 -328 -319q-63 -146 -109 -346q-43 -190 -43 -340zM591 1770h392l71 -258h-77z" />
    <glyph glyph-name="Oacute" unicode="&#xd3;" horiz-adv-x="1328" 
d="M111 456q0 232 95 453q118 273 330 399q152 90 337 90q198 0 324 -118q132 -123 132 -365q0 -192 -64 -380q-95 -279 -298 -435q-174 -133 -391 -133q-205 0 -330 115q-135 125 -135 374zM375 327q0 -131 49 -211q50 -83 157 -83q201 0 343 347q70 169 109 370
q30 155 30 285q0 297 -208 297q-190 0 -328 -319q-63 -146 -109 -346q-43 -190 -43 -340zM793 1512l200 258h392l-501 -258h-91z" />
    <glyph glyph-name="Ocircumflex" unicode="&#xd4;" horiz-adv-x="1328" 
d="M111 456q0 232 95 453q118 273 330 399q152 90 337 90q198 0 324 -118q132 -123 132 -365q0 -192 -64 -380q-95 -279 -298 -435q-174 -133 -391 -133q-205 0 -330 115q-135 125 -135 374zM375 327q0 -131 49 -211q50 -83 157 -83q201 0 343 347q70 169 109 370
q30 155 30 285q0 297 -208 297q-190 0 -328 -319q-63 -146 -109 -346q-43 -190 -43 -340zM535 1502l445 306h19l274 -306h-85l-243 127l-308 -127h-102z" />
    <glyph glyph-name="Otilde" unicode="&#xd5;" horiz-adv-x="1328" 
d="M111 456q0 232 95 453q118 273 330 399q152 90 337 90q198 0 324 -118q132 -123 132 -365q0 -192 -64 -380q-95 -279 -298 -435q-174 -133 -391 -133q-205 0 -330 115q-135 125 -135 374zM375 327q0 -131 49 -211q50 -83 157 -83q201 0 343 347q70 169 109 370
q30 155 30 285q0 297 -208 297q-190 0 -328 -319q-63 -146 -109 -346q-43 -190 -43 -340zM585 1547q67 106 106 145q77 77 162 77q61 0 139 -47q83 -50 120 -50q52 0 96 39q22 19 60 64l61 -18q-66 -118 -132 -177q-67 -60 -150 -60q-44 0 -85 21q-19 9 -82 47
q-52 31 -90 31q-71 0 -144 -92z" />
    <glyph glyph-name="Odieresis" unicode="&#xd6;" horiz-adv-x="1328" 
d="M111 456q0 232 95 453q118 273 330 399q152 90 337 90q198 0 324 -118q132 -123 132 -365q0 -192 -64 -380q-95 -279 -298 -435q-174 -133 -391 -133q-205 0 -330 115q-135 125 -135 374zM375 327q0 -131 49 -211q50 -83 157 -83q201 0 343 347q70 169 109 370
q30 155 30 285q0 297 -208 297q-190 0 -328 -319q-63 -146 -109 -346q-43 -190 -43 -340zM581 1616q0 87 69 144q54 44 115 44q53 0 89 -35q34 -35 34 -87q0 -85 -68 -142q-49 -41 -111 -41q-54 0 -90 32q-38 35 -38 85zM994 1616q0 87 69 144q54 44 115 44q53 0 89 -35
q34 -35 34 -87q0 -85 -68 -142q-49 -41 -111 -41q-54 0 -90 32q-38 35 -38 85z" />
    <glyph glyph-name="multiply" unicode="&#xd7;" 
d="M193 988l124 124l302 -302l297 297l118 -119l-297 -296l302 -302l-124 -124l-302 301l-296 -296l-119 118l297 297z" />
    <glyph glyph-name="Oslash" unicode="&#xd8;" horiz-adv-x="1328" 
d="M-57 0l215 204q-47 113 -47 257q0 227 95 448q118 273 330 399q152 90 330 90q245 0 375 -167l141 134h108l-210 -199q49 -114 49 -259q0 -183 -64 -372q-95 -279 -298 -435q-174 -133 -392 -133q-251 0 -381 174l-143 -141h-108zM377 290q9 -100 37 -157
q49 -100 167 -100q251 0 405 524q64 219 76 418zM377 397l685 684q-21 251 -203 251q-232 0 -383 -455q-83 -250 -99 -480z" />
    <glyph glyph-name="Ugrave" unicode="&#xd9;" horiz-adv-x="1359" 
d="M192 295q0 83 32 212l161 646q12 47 12 79q0 45 -56 56q-29 7 -88 8l19 76q166 -15 293 -15t305 15l-19 -76q-83 -2 -120 -16q-38 -14 -58 -58q-10 -22 -22 -69l-166 -669q-33 -132 -33 -206q0 -72 50 -119q66 -62 186 -62q144 0 252 93q83 71 136 242q19 64 39 143
l144 578q14 56 14 77q0 46 -53 58q-27 7 -88 8l19 76q112 -7 205 -7t207 7l-19 -76q-123 -9 -163 -84q-28 -49 -61 -172q-57 -203 -63 -228l-70 -284q-48 -193 -96 -276q-85 -149 -232 -218q-120 -57 -268 -57q-198 0 -303 94q-96 87 -96 224zM632 1770h392l71 -258h-77z
" />
    <glyph glyph-name="Uacute" unicode="&#xda;" horiz-adv-x="1359" 
d="M192 295q0 83 32 212l161 646q12 47 12 79q0 45 -56 56q-29 7 -88 8l19 76q166 -15 293 -15t305 15l-19 -76q-83 -2 -120 -16q-38 -14 -58 -58q-10 -22 -22 -69l-166 -669q-33 -132 -33 -206q0 -72 50 -119q66 -62 186 -62q144 0 252 93q83 71 136 242q19 64 39 143
l144 578q14 56 14 77q0 46 -53 58q-27 7 -88 8l19 76q112 -7 205 -7t207 7l-19 -76q-123 -9 -163 -84q-28 -49 -61 -172q-57 -203 -63 -228l-70 -284q-48 -193 -96 -276q-85 -149 -232 -218q-120 -57 -268 -57q-198 0 -303 94q-96 87 -96 224zM813 1512l200 258h392
l-501 -258h-91z" />
    <glyph glyph-name="Ucircumflex" unicode="&#xdb;" horiz-adv-x="1359" 
d="M192 295q0 83 32 212l161 646q12 47 12 79q0 45 -56 56q-29 7 -88 8l19 76q166 -15 293 -15t305 15l-19 -76q-83 -2 -120 -16q-38 -14 -58 -58q-10 -22 -22 -69l-166 -669q-33 -132 -33 -206q0 -72 50 -119q66 -62 186 -62q144 0 252 93q83 71 136 242q19 64 39 143
l144 578q14 56 14 77q0 46 -53 58q-27 7 -88 8l19 76q112 -7 205 -7t207 7l-19 -76q-123 -9 -163 -84q-28 -49 -61 -172q-57 -203 -63 -228l-70 -284q-48 -193 -96 -276q-85 -149 -232 -218q-120 -57 -268 -57q-198 0 -303 94q-96 87 -96 224zM590 1502l445 306h19l274 -306
h-85l-243 127l-308 -127h-102z" />
    <glyph glyph-name="Udieresis" unicode="&#xdc;" horiz-adv-x="1359" 
d="M192 295q0 83 32 212l161 646q12 47 12 79q0 45 -56 56q-29 7 -88 8l19 76q166 -15 293 -15t305 15l-19 -76q-83 -2 -120 -16q-38 -14 -58 -58q-10 -22 -22 -69l-166 -669q-33 -132 -33 -206q0 -72 50 -119q66 -62 186 -62q144 0 252 93q83 71 136 242q19 64 39 143
l144 578q14 56 14 77q0 46 -53 58q-27 7 -88 8l19 76q112 -7 205 -7t207 7l-19 -76q-123 -9 -163 -84q-28 -49 -61 -172q-57 -203 -63 -228l-70 -284q-48 -193 -96 -276q-85 -149 -232 -218q-120 -57 -268 -57q-198 0 -303 94q-96 87 -96 224zM636 1616q0 87 70 144
q53 44 114 44q53 0 89 -35q34 -34 34 -87q0 -85 -68 -142q-49 -41 -111 -41q-54 0 -89 32q-39 35 -39 85zM1049 1616q0 87 70 144q53 44 114 44q54 0 89 -35q34 -35 34 -87q0 -85 -68 -142q-49 -41 -111 -41q-54 0 -89 32q-39 35 -39 85z" />
    <glyph glyph-name="Yacute" unicode="&#xdd;" horiz-adv-x="1082" 
d="M137 -7l19 76q89 2 127 16q40 15 60 59q11 23 22 68l94 375l-105 469q-24 108 -35 138q-32 77 -95 95q-16 5 -49 7l14 76q143 -15 288 -15q147 0 299 15l-19 -76q-49 -2 -80 -8q-72 -14 -72 -65q0 -11 8 -70l90 -478l294 425q76 111 76 151q0 48 -78 48q-12 0 -32 -2
l-9 68q189 12 298 68q7 -34 7 -56q0 -37 -16 -68q-18 -35 -55 -83q-15 -20 -130 -179l-333 -459l-94 -376q-13 -53 -13 -81q0 -42 51 -54q25 -6 83 -8l-18 -76q-172 15 -296 15q-125 0 -301 -15zM660 1512l200 258h392l-501 -258h-91z" />
    <glyph glyph-name="Thorn" unicode="&#xde;" horiz-adv-x="1175" 
d="M-61 -7l19 76q87 2 123 16q39 15 58 58q12 24 23 69l232 934q13 51 13 81q0 43 -56 55q-29 6 -89 7l19 76q168 -15 298 -15q129 0 300 15l-18 -76q-84 -1 -121 -16q-38 -14 -57 -58q-6 -14 -19 -54h101q216 0 299 -38q73 -33 112 -99q41 -68 41 -151q0 -112 -47 -215.5
t-128 -166.5q-148 -116 -403 -116h-170l-41 -163q-12 -48 -12 -76q0 -46 60 -59q25 -6 88 -8l-19 -76q-167 15 -299 15q-131 0 -307 -15zM488 453h90q109 0 180 39q98 54 154 204q40 107 40 204q0 120 -82 159q-48 24 -142 24h-83z" />
    <glyph glyph-name="germandbls" unicode="&#xdf;" horiz-adv-x="1115" 
d="M-244 -398l19 75q68 13 112 35q52 28 85 74.5t60 130.5q18 59 71 269l26 108l166 667q56 222 155 307q126 108 333 108q149 0 231 -56q95 -65 95 -195q0 -159 -119 -268q-83 -76 -221 -105q129 -33 192 -93q74 -72 74 -204q0 -178 -118 -323q-57 -71 -139 -111
q-87 -43 -176 -43q-82 0 -148 44l17 68q47 -20 81 -20q106 0 172 130q72 141 72 299q0 122 -76 171q-39 26 -129 39l20 65q87 8 133 36q71 44 114 163q39 110 39 207q0 129 -122 129q-70 0 -114 -45q-45 -46 -74 -164l-195 -782q-26 -93 -80 -282q-90 -263 -300 -371
q-120 -61 -256 -63z" />
    <glyph glyph-name="agrave" unicode="&#xe0;" horiz-adv-x="1134" 
d="M41 303q0 146 71 307q87 196 234 298q119 82 251 82q98 0 146 -51q33 -36 37 -113l41 143q126 1 257 21l-172 -605q-52 -186 -52 -227q0 -64 51 -64q47 0 90 62q12 18 33 61l56 -24q-102 -215 -272 -215q-161 0 -188 179q-38 -62 -75 -99q-80 -80 -196 -80
q-145 0 -229 93q-83 93 -83 232zM280 187q0 -58 19 -96q29 -56 87 -56q123 0 220 232q45 109 90 286q39 150 39 230q0 150 -115 150q-66 0 -124 -75t-119 -237q-97 -260 -97 -434zM424 1402h378l51 -285h-78z" />
    <glyph glyph-name="aacute" unicode="&#xe1;" horiz-adv-x="1134" 
d="M41 303q0 146 71 307q87 196 234 298q119 82 251 82q98 0 146 -51q33 -36 37 -113l41 143q126 1 257 21l-172 -605q-52 -186 -52 -227q0 -64 51 -64q47 0 90 62q12 18 33 61l56 -24q-102 -215 -272 -215q-161 0 -188 179q-38 -62 -75 -99q-80 -80 -196 -80
q-145 0 -229 93q-83 93 -83 232zM280 187q0 -58 19 -96q29 -56 87 -56q123 0 220 232q45 109 90 286q39 150 39 230q0 150 -115 150q-66 0 -124 -75t-119 -237q-97 -260 -97 -434zM592 1117l193 285h378l-480 -285h-91z" />
    <glyph glyph-name="acircumflex" unicode="&#xe2;" horiz-adv-x="1134" 
d="M41 303q0 146 71 307q87 196 234 298q119 82 251 82q98 0 146 -51q33 -36 37 -113l41 143q126 1 257 21l-172 -605q-52 -186 -52 -227q0 -64 51 -64q47 0 90 62q12 18 33 61l56 -24q-102 -215 -272 -215q-161 0 -188 179q-38 -62 -75 -99q-80 -80 -196 -80
q-145 0 -229 93q-83 93 -83 232zM280 187q0 -58 19 -96q29 -56 87 -56q123 0 220 232q45 109 90 286q39 150 39 230q0 150 -115 150q-66 0 -124 -75t-119 -237q-97 -260 -97 -434zM389 1098l417 334h19l234 -334h-78l-211 148l-286 -148h-95z" />
    <glyph glyph-name="atilde" unicode="&#xe3;" horiz-adv-x="1134" 
d="M41 303q0 146 71 307q87 196 234 298q119 82 251 82q98 0 146 -51q33 -36 37 -113l41 143q126 1 257 21l-172 -605q-52 -186 -52 -227q0 -64 51 -64q47 0 90 62q12 18 33 61l56 -24q-102 -215 -272 -215q-161 0 -188 179q-38 -62 -75 -99q-80 -80 -196 -80
q-145 0 -229 93q-83 93 -83 232zM280 187q0 -58 19 -96q29 -56 87 -56q123 0 220 232q45 109 90 286q39 150 39 230q0 150 -115 150q-66 0 -124 -75t-119 -237q-97 -260 -97 -434zM402 1155q67 106 106 145q77 77 162 77q61 0 139 -46q83 -50 120 -50q52 0 96 39
q22 19 60 63l61 -18q-65 -117 -132 -177q-66 -60 -150 -60q-44 0 -85 21q-19 9 -82 47q-52 31 -90 31q-71 0 -144 -92z" />
    <glyph glyph-name="adieresis" unicode="&#xe4;" horiz-adv-x="1134" 
d="M41 303q0 146 71 307q87 196 234 298q119 82 251 82q98 0 146 -51q33 -36 37 -113l41 143q126 1 257 21l-172 -605q-52 -186 -52 -227q0 -64 51 -64q47 0 90 62q12 18 33 61l56 -24q-102 -215 -272 -215q-161 0 -188 179q-38 -62 -75 -99q-80 -80 -196 -80
q-145 0 -229 93q-83 93 -83 232zM280 187q0 -58 19 -96q29 -56 87 -56q123 0 220 232q45 109 90 286q39 150 39 230q0 150 -115 150q-66 0 -124 -75t-119 -237q-97 -260 -97 -434zM425 1227q0 83 66 137q51 42 109 42q51 0 84 -34q33 -32 33 -82q0 -81 -64 -136
q-47 -39 -106 -39q-52 0 -85 31q-37 33 -37 81zM818 1227q0 83 66 137q51 42 109 42q51 0 84 -34q33 -33 33 -82q0 -81 -64 -136q-47 -39 -106 -39q-52 0 -86 31q-36 33 -36 81z" />
    <glyph glyph-name="aring" unicode="&#xe5;" horiz-adv-x="1134" 
d="M41 303q0 146 71 307q87 196 234 298q119 82 251 82q98 0 146 -51q33 -36 37 -113l41 143q126 1 257 21l-172 -605q-52 -186 -52 -227q0 -64 51 -64q47 0 90 62q12 18 33 61l56 -24q-102 -215 -272 -215q-161 0 -188 179q-38 -62 -75 -99q-80 -80 -196 -80
q-145 0 -229 93q-83 93 -83 232zM280 187q0 -58 19 -96q29 -56 87 -56q123 0 220 232q45 109 90 286q39 150 39 230q0 150 -115 150q-66 0 -124 -75t-119 -237q-97 -260 -97 -434zM582 1282q0 77 54 129q55 54 132 54q74 0 127 -54q54 -53 54 -129t-54 -129
q-53 -54 -129 -54q-77 0 -130 54q-54 53 -54 129zM670 1282q0 -39 28 -67t67 -28q40 0 68 28t28 67q0 40 -28 67q-29 28 -69 28q-38 0 -66 -28t-28 -67z" />
    <glyph glyph-name="ae" unicode="&#xe6;" horiz-adv-x="1534" 
d="M47 323q0 138 62 286q84 200 224 297q120 84 254 84q98 0 145 -53q32 -36 40 -118l37 150q92 2 121 4q29 3 126 16l-42 -170q41 73 79 108q68 63 179 63q101 0 167 -50q84 -64 84 -178q0 -184 -254 -304q-152 -72 -358 -82q-13 -70 -13 -117q0 -80 39 -131
q52 -68 148 -68q118 0 211 111q47 57 80 135h87q-51 -121 -142 -208q-126 -120 -306 -120q-246 0 -335 198q-49 -82 -104 -129q-81 -69 -200 -69q-150 0 -237 94q-92 98 -92 251zM286 190q0 -59 22 -99q31 -56 92 -56q120 0 212 232q39 97 80 286q34 152 34 237q0 58 -26 96
q-32 47 -90 47q-88 0 -168 -142q-56 -99 -104 -270q-52 -186 -52 -331zM928 449q140 0 240 75q69 51 107 130q36 74 36 150q0 53 -17 86q-22 43 -69 43q-105 0 -204 -206q-62 -128 -93 -278z" />
    <glyph glyph-name="ccedilla" unicode="&#xe7;" horiz-adv-x="910" 
d="M48 324q0 115 39.5 233t109.5 212q81 109 194 168q108 57 226 57q90 0 184 -41q48 -21 75 -21q23 0 62 28l-74 -351h-60q10 52 10 95q0 113 -48 171q-42 52 -108 52q-145 0 -262 -243q-102 -211 -102 -400q0 -96 45 -159q46 -65 136 -65q118 0 206 118q45 61 72 146h91
q-121 -341 -417 -349l-67 -81q146 -2 146 -110q0 -82 -73 -138q-65 -50 -159 -50q-67 0 -158 36l17 64q66 -20 107 -20q60 0 90 38q20 26 20 57q0 70 -110 70q-6 0 -20 -1l116 139q-82 13 -139 47q-65 40 -102 106q-47 83 -47 192z" />
    <glyph glyph-name="egrave" unicode="&#xe8;" horiz-adv-x="921" 
d="M45 310q0 142 61 291q82 200 239 303q130 86 283 86q113 0 191 -50q93 -59 93 -179q0 -183 -254 -303q-152 -72 -359 -82q-15 -66 -15 -118q0 -81 38 -130q53 -68 150 -68q118 0 211 111q48 57 81 135h87q-51 -122 -142 -209q-127 -120 -319 -120q-151 0 -245 83
q-100 89 -100 250zM316 449q141 0 241 75q69 52 107 130q36 73 36 152q0 50 -18 82q-24 45 -70 45q-104 0 -203 -206q-57 -119 -93 -278zM328 1402h378l51 -285h-78z" />
    <glyph glyph-name="eacute" unicode="&#xe9;" horiz-adv-x="921" 
d="M45 310q0 142 61 291q82 200 239 303q130 86 283 86q113 0 191 -50q93 -59 93 -179q0 -183 -254 -303q-152 -72 -359 -82q-15 -66 -15 -118q0 -81 38 -130q53 -68 150 -68q118 0 211 111q48 57 81 135h87q-51 -122 -142 -209q-127 -120 -319 -120q-151 0 -245 83
q-100 89 -100 250zM316 449q141 0 241 75q69 52 107 130q36 73 36 152q0 50 -18 82q-24 45 -70 45q-104 0 -203 -206q-57 -119 -93 -278zM503 1117l193 285h378l-480 -285h-91z" />
    <glyph glyph-name="ecircumflex" unicode="&#xea;" horiz-adv-x="921" 
d="M45 310q0 142 61 291q82 200 239 303q130 86 283 86q113 0 191 -50q93 -59 93 -179q0 -183 -254 -303q-152 -72 -359 -82q-15 -66 -15 -118q0 -81 38 -130q53 -68 150 -68q118 0 211 111q48 57 81 135h87q-51 -122 -142 -209q-127 -120 -319 -120q-151 0 -245 83
q-100 89 -100 250zM286 1098l417 334h19l234 -334h-78l-211 148l-286 -148h-95zM316 449q141 0 241 75q69 52 107 130q36 73 36 152q0 50 -18 82q-24 45 -70 45q-104 0 -203 -206q-57 -119 -93 -278z" />
    <glyph glyph-name="edieresis" unicode="&#xeb;" horiz-adv-x="921" 
d="M45 310q0 142 61 291q82 200 239 303q130 86 283 86q113 0 191 -50q93 -59 93 -179q0 -183 -254 -303q-152 -72 -359 -82q-15 -66 -15 -118q0 -81 38 -130q53 -68 150 -68q118 0 211 111q48 57 81 135h87q-51 -122 -142 -209q-127 -120 -319 -120q-151 0 -245 83
q-100 89 -100 250zM316 449q141 0 241 75q69 52 107 130q36 73 36 152q0 50 -18 82q-24 45 -70 45q-104 0 -203 -206q-57 -119 -93 -278zM321 1227q0 83 66 137q51 42 110 42q50 0 84 -34q33 -32 33 -82q0 -81 -65 -136q-47 -39 -106 -39q-51 0 -85 31q-37 33 -37 81z
M714 1227q0 83 66 137q51 42 110 42q50 0 84 -34q33 -32 33 -82q0 -81 -65 -136q-47 -39 -105 -39q-52 0 -86 31q-37 33 -37 81z" />
    <glyph glyph-name="igrave" unicode="&#xec;" horiz-adv-x="635" 
d="M105 162q0 62 38 201l103 372q21 78 21 102q0 34 -46 40q-25 4 -75 4l15 54q209 15 418 71l-184 -667q-44 -155 -44 -194q0 -55 45 -55q40 0 66 41q17 25 46 94l56 -15q-57 -232 -258 -232q-87 0 -143 50q-58 51 -58 134zM176 1402h378l51 -285h-78z" />
    <glyph glyph-name="iacute" unicode="&#xed;" horiz-adv-x="635" 
d="M105 162q0 62 38 201l103 372q21 78 21 102q0 34 -46 40q-25 4 -75 4l15 54q209 15 418 71l-184 -667q-44 -155 -44 -194q0 -55 45 -55q40 0 66 41q17 25 46 94l56 -15q-57 -232 -258 -232q-87 0 -143 50q-58 51 -58 134zM337 1117l179 285h351l-439 -285h-91z" />
    <glyph glyph-name="icircumflex" unicode="&#xee;" horiz-adv-x="635" 
d="M105 162q0 62 38 201l103 372q21 78 21 102q0 34 -46 40q-25 4 -75 4l15 54q209 15 418 71l-184 -667q-44 -155 -44 -194q0 -55 45 -55q40 0 66 41q17 25 46 94l56 -15q-57 -232 -258 -232q-87 0 -143 50q-58 51 -58 134zM147 1098l390 334h19l206 -334h-78l-184 148
l-258 -148h-95z" />
    <glyph glyph-name="idieresis" unicode="&#xef;" horiz-adv-x="636" 
d="M105 162q0 62 38 201l103 372q21 78 21 102q0 34 -46 40q-25 4 -75 4l15 54q209 15 418 71l-184 -667q-44 -155 -44 -194q0 -55 45 -55q40 0 66 41q17 25 46 94l56 -15q-57 -232 -258 -232q-87 0 -143 50q-58 51 -58 134zM185 1239q0 80 64 132q50 41 106 41q49 0 82 -33
q32 -31 32 -80q0 -78 -63 -131q-45 -38 -102 -38q-51 0 -84 30q-35 32 -35 79zM546 1238q0 81 64 133q50 41 106 41q50 0 82 -33q32 -31 32 -80q0 -79 -63 -131q-45 -38 -102 -38q-50 0 -84 30q-35 31 -35 78z" />
    <glyph glyph-name="eth" unicode="&#xf0;" horiz-adv-x="1027" 
d="M51 344q0 122 53 256q76 194 219 296q133 94 290 94q42 0 104 -10l-20 157l-154 -41l-21 79l164 43l-19 166l64 19l69 -156l174 46l19 -79l-162 -42l74 -174q48 -104 61 -144q30 -96 30 -193q0 -141 -57 -294q-71 -188 -212 -291q-134 -98 -298 -98q-159 0 -261 87
q-117 100 -117 279zM291 201q0 -76 35 -119q38 -46 103 -46q80 0 139 74q74 91 132 331q40 167 40 294q0 99 -25 146q-27 51 -98 51q-66 0 -115 -52q-82 -86 -153 -337q-58 -203 -58 -342z" />
    <glyph glyph-name="ntilde" unicode="&#xf1;" horiz-adv-x="1191" 
d="M56 0l183 731q15 84 15 102q0 34 -45 41q-23 4 -80 4l14 54q201 19 343 60q7 -38 7 -68q0 -48 -11 -104q136 170 333 170q125 0 191 -73q44 -49 44 -124q0 -71 -25 -173l-71 -281q-38 -156 -38 -190q0 -59 45 -59q38 0 62 36q18 26 46 99l56 -15q-50 -232 -251 -232
q-88 0 -144 50q-61 53 -61 137q0 61 35 197l72 290q20 81 20 127q0 47 -28 74q-31 28 -78 28q-84 0 -144 -74q-46 -57 -72 -159l-161 -648h-257zM358 1155q67 106 106 145q77 77 162 77q61 0 139 -46q83 -50 120 -50q52 0 96 39q22 19 60 63l61 -18q-65 -117 -132 -177
q-66 -60 -150 -60q-44 0 -85 21q-19 9 -82 47q-52 31 -90 31q-71 0 -144 -92z" />
    <glyph glyph-name="ograve" unicode="&#xf2;" horiz-adv-x="1030" 
d="M55 348q0 155 66 300q79 174 219 261q131 81 288 81t255 -94q102 -98 102 -275q0 -115 -37.5 -229t-103.5 -200q-165 -214 -429 -214q-154 0 -249 84q-111 99 -111 286zM294 213q0 -177 128 -177q82 0 143 79q70 91 130 306q51 183 51 328q0 184 -133 184
q-61 0 -109.5 -48t-94.5 -153q-46 -106 -82 -263q-33 -141 -33 -256zM350 1402h378l51 -285h-78z" />
    <glyph glyph-name="oacute" unicode="&#xf3;" horiz-adv-x="1030" 
d="M55 348q0 155 66 300q79 174 219 261q131 81 288 81t255 -94q102 -98 102 -275q0 -115 -37.5 -229t-103.5 -200q-165 -214 -429 -214q-154 0 -249 84q-111 99 -111 286zM294 213q0 -177 128 -177q82 0 143 79q70 91 130 306q51 183 51 328q0 184 -133 184
q-61 0 -109.5 -48t-94.5 -153q-46 -106 -82 -263q-33 -141 -33 -256zM559 1117l193 285h378l-480 -285h-91z" />
    <glyph glyph-name="ocircumflex" unicode="&#xf4;" horiz-adv-x="1030" 
d="M55 348q0 155 66 300q79 174 219 261q131 81 288 81t255 -94q102 -98 102 -275q0 -115 -37.5 -229t-103.5 -200q-165 -214 -429 -214q-154 0 -249 84q-111 99 -111 286zM294 213q0 -177 128 -177q82 0 143 79q70 91 130 306q51 183 51 328q0 184 -133 184
q-61 0 -109.5 -48t-94.5 -153q-46 -106 -82 -263q-33 -141 -33 -256zM322 1098l417 334h19l234 -334h-78l-211 148l-286 -148h-95z" />
    <glyph glyph-name="otilde" unicode="&#xf5;" horiz-adv-x="1030" 
d="M55 348q0 155 66 300q79 174 219 261q131 81 288 81t255 -94q102 -98 102 -275q0 -115 -37.5 -229t-103.5 -200q-165 -214 -429 -214q-154 0 -249 84q-111 99 -111 286zM294 213q0 -177 128 -177q82 0 143 79q70 91 130 306q51 183 51 328q0 184 -133 184
q-61 0 -109.5 -48t-94.5 -153q-46 -106 -82 -263q-33 -141 -33 -256zM348 1155q67 106 106 145q77 77 162 77q61 0 139 -46q83 -50 120 -50q52 0 96 39q22 19 60 63l61 -18q-65 -117 -132 -177q-66 -60 -150 -60q-44 0 -85 21q-19 9 -82 47q-52 31 -90 31q-71 0 -144 -92z
" />
    <glyph glyph-name="odieresis" unicode="&#xf6;" horiz-adv-x="1030" 
d="M55 348q0 155 66 300q79 174 219 261q131 81 288 81t255 -94q102 -98 102 -275q0 -115 -37.5 -229t-103.5 -200q-165 -214 -429 -214q-154 0 -249 84q-111 99 -111 286zM294 213q0 -177 128 -177q82 0 143 79q70 91 130 306q51 183 51 328q0 184 -133 184
q-61 0 -109.5 -48t-94.5 -153q-46 -106 -82 -263q-33 -141 -33 -256zM365 1227q0 83 66 137q51 42 110 42q50 0 84 -34q33 -32 33 -82q0 -81 -65 -136q-47 -39 -106 -39q-51 0 -85 31q-37 33 -37 81zM758 1227q0 83 66 137q51 42 110 42q50 0 84 -34q33 -32 33 -82
q0 -81 -65 -136q-47 -39 -105 -39q-52 0 -86 31q-37 33 -37 81z" />
    <glyph glyph-name="divide" unicode="&#xf7;" 
d="M157 607v164h918v-164h-918zM476 353q0 59 41 99q42 41 101 41q56 0 97 -41q41 -40 41 -99q0 -58 -41 -99t-99 -41t-99 41t-41 99zM476 1025q0 59 41 99q42 41 101 41q56 0 97 -41t41 -99t-41 -99t-99 -41t-99 41t-41 99z" />
    <glyph glyph-name="oslash" unicode="&#xf8;" horiz-adv-x="1030" 
d="M-73 -23l174 164q-47 89 -47 212q0 150 65 295q79 173 220 261q131 81 282 81q172 0 274 -108l112 105h103l-173 -162q47 -93 47 -206q0 -114 -37.5 -227.5t-103.5 -199.5q-166 -214 -429 -214q-169 0 -272 108l-116 -109h-99zM293 199q4 -60 19 -96q29 -67 111 -67
q104 0 172 127q113 213 145 499zM298 304l446 462q-4 69 -21 105q-30 62 -109 62q-142 0 -237 -282q-62 -184 -79 -347z" />
    <glyph glyph-name="ugrave" unicode="&#xf9;" horiz-adv-x="1196" 
d="M117 195q0 51 18 125l104 415q19 75 19 98q0 38 -47 44q-29 4 -76 4l13 54q210 15 415 71l-175 -704q-19 -76 -19 -111q0 -34 16 -61q27 -43 85 -43q113 0 187 142q35 66 72 215l131 525q129 1 262 21l-150 -600q-44 -180 -44 -223q0 -33 16 -51q16 -17 37 -17
q48 0 88 62q11 18 31 61l56 -24q-94 -216 -269 -216q-104 0 -157 66q-28 34 -39 102q-64 -71 -120 -108q-92 -60 -207 -60q-131 0 -197 74q-50 56 -50 139zM422 1402h378l51 -285h-78z" />
    <glyph glyph-name="uacute" unicode="&#xfa;" horiz-adv-x="1196" 
d="M117 195q0 51 18 125l104 415q19 75 19 98q0 38 -47 44q-29 4 -76 4l13 54q210 15 415 71l-175 -704q-19 -76 -19 -111q0 -34 16 -61q27 -43 85 -43q113 0 187 142q35 66 72 215l131 525q129 1 262 21l-150 -600q-44 -180 -44 -223q0 -33 16 -51q16 -17 37 -17
q48 0 88 62q11 18 31 61l56 -24q-94 -216 -269 -216q-104 0 -157 66q-28 34 -39 102q-64 -71 -120 -108q-92 -60 -207 -60q-131 0 -197 74q-50 56 -50 139zM617 1117l193 285h378l-480 -285h-91z" />
    <glyph glyph-name="ucircumflex" unicode="&#xfb;" horiz-adv-x="1196" 
d="M117 195q0 51 18 125l104 415q19 75 19 98q0 38 -47 44q-29 4 -76 4l13 54q210 15 415 71l-175 -704q-19 -76 -19 -111q0 -34 16 -61q27 -43 85 -43q113 0 187 142q35 66 72 215l131 525q129 1 262 21l-150 -600q-44 -180 -44 -223q0 -33 16 -51q16 -17 37 -17
q48 0 88 62q11 18 31 61l56 -24q-94 -216 -269 -216q-104 0 -157 66q-28 34 -39 102q-64 -71 -120 -108q-92 -60 -207 -60q-131 0 -197 74q-50 56 -50 139zM386 1098l417 334h19l234 -334h-78l-211 148l-286 -148h-95z" />
    <glyph glyph-name="udieresis" unicode="&#xfc;" horiz-adv-x="1196" 
d="M117 195q0 51 18 125l104 415q19 75 19 98q0 38 -47 44q-29 4 -76 4l13 54q210 15 415 71l-175 -704q-19 -76 -19 -111q0 -34 16 -61q27 -43 85 -43q113 0 187 142q35 66 72 215l131 525q129 1 262 21l-150 -600q-44 -180 -44 -223q0 -33 16 -51q16 -17 37 -17
q48 0 88 62q11 18 31 61l56 -24q-94 -216 -269 -216q-104 0 -157 66q-28 34 -39 102q-64 -71 -120 -108q-92 -60 -207 -60q-131 0 -197 74q-50 56 -50 139zM426 1227q0 83 66 137q51 42 110 42q50 0 84 -34q33 -32 33 -82q0 -81 -65 -136q-47 -39 -106 -39q-51 0 -85 31
q-37 33 -37 81zM819 1227q0 83 66 137q51 42 110 42q50 0 84 -34q33 -32 33 -82q0 -81 -65 -136q-47 -39 -105 -39q-52 0 -86 31q-37 33 -37 81z" />
    <glyph glyph-name="yacute" unicode="&#xfd;" horiz-adv-x="925" 
d="M-167 -266q62 -26 116 -26q102 0 190 92q77 80 142 173l42 61l-143 745q-16 82 -38 105q-25 26 -89 32l14 58q141 -10 255 -10q115 0 260 10l-14 -58q-67 -5 -88 -13q-35 -13 -35 -47q0 -7 6 -46l73 -482l287 432q11 17 23 34q41 59 41 90q0 41 -64 41q-11 0 -30 -2
l-9 54q77 10 124 22q56 13 118 47q11 -45 11 -64q0 -43 -26 -86q-11 -20 -131 -196l-551 -802q-42 -61 -100 -131.5t-85 -93.5q-97 -83 -251 -83q-16 0 -48 1v143zM458 1117l193 285h378l-480 -285h-91z" />
    <glyph glyph-name="thorn" unicode="&#xfe;" horiz-adv-x="1100" 
d="M72 -403l383 1534q18 74 18 97q0 40 -47 46q-27 3 -76 3l13 54q125 13 206 27q43 7 210 45l-125 -501q97 88 218 88q134 0 218 -91q87 -94 87 -256q0 -145 -60 -286q-81 -193 -225 -295q-118 -84 -255 -84q-83 0 -133 34q-27 18 -57 60l-118 -475h-257zM499 187
q0 -57 23 -99q30 -53 94 -53q124 0 214 225q50 126 83 301q25 130 25 224q0 148 -109 148q-107 0 -189 -165q-58 -116 -108 -342q-33 -148 -33 -239z" />
    <glyph glyph-name="ydieresis" unicode="&#xff;" horiz-adv-x="925" 
d="M-167 -266q62 -26 116 -26q102 0 190 92q77 80 142 173l42 61l-143 745q-16 82 -38 105q-25 26 -89 32l14 58q141 -10 255 -10q115 0 260 10l-14 -58q-67 -5 -88 -13q-35 -13 -35 -47q0 -7 6 -46l73 -482l287 432q11 17 23 34q41 59 41 90q0 41 -64 41q-11 0 -30 -2
l-9 54q77 10 124 22q56 13 118 47q11 -45 11 -64q0 -43 -26 -86q-11 -20 -131 -196l-551 -802q-42 -61 -100 -131.5t-85 -93.5q-97 -83 -251 -83q-16 0 -48 1v143zM277 1227q0 83 66 137q51 42 110 42q50 0 84 -34q33 -32 33 -82q0 -81 -65 -136q-47 -39 -106 -39
q-51 0 -85 31q-37 33 -37 81zM670 1227q0 83 66 137q51 42 110 42q50 0 84 -34q33 -32 33 -82q0 -81 -65 -136q-47 -39 -105 -39q-52 0 -86 31q-37 33 -37 81z" />
    <glyph glyph-name="OE" unicode="&#x152;" horiz-adv-x="1906" 
d="M99 419q0 211 91 437q127 312 365 450q159 92 327 92q171 0 283 -129l24 96h778l-33 -360h-64q1 36 1 54q0 159 -76 202q-46 26 -150 26h-207l-131 -527h408l-23 -93h-408l-114 -454q-14 -56 -14 -83q0 -52 101 -52h104q125 1 192 46q69 44 150 157q31 44 60 99h63
l-158 -380h-820l23 90q-164 -123 -336 -123q-196 0 -313 117q-58 57 -90.5 146t-32.5 189zM364 295q0 -105 44 -177q52 -85 155 -85q141 0 252 156q105 145 187 430q73 254 73 456q0 141 -63 207q-47 50 -125 50q-90 0 -178 -79.5t-163 -227.5q-71 -142 -127 -356
q-55 -212 -55 -374z" />
    <glyph glyph-name="oe" unicode="&#x153;" horiz-adv-x="1530" 
d="M46 325q0 132 60 273q76 180 226 290q138 102 297 102q174 0 268 -131q151 131 340 131q115 0 192 -50q94 -60 94 -180q0 -182 -254 -302q-152 -72 -359 -82q-13 -73 -13 -118q0 -77 40 -129q53 -69 146 -69q118 0 212 111q47 56 80 135h85q-53 -122 -141 -209
q-122 -119 -303 -119q-212 0 -305 132q-160 -132 -331 -132q-147 0 -233 87q-101 102 -101 260zM285 176q0 -65 28 -102q29 -39 77 -39q86 0 152 101q66 99 123 305q53 189 53 336q0 156 -106 156q-109 0 -200 -202q-51 -113 -92 -294q-35 -154 -35 -261zM928 449
q140 0 240 75q69 52 107 130q36 74 36 152q0 50 -18 82q-24 45 -70 45q-111 0 -212 -223q-54 -119 -83 -261z" />
    <glyph glyph-name="Ydieresis" unicode="&#x178;" horiz-adv-x="1082" 
d="M137 -7l19 76q89 2 127 16q40 15 60 59q11 23 22 68l94 375l-105 469q-24 108 -35 138q-32 77 -95 95q-16 5 -49 7l14 76q143 -15 288 -15q147 0 299 15l-19 -76q-49 -2 -80 -8q-72 -14 -72 -65q0 -11 8 -70l90 -478l294 425q76 111 76 151q0 48 -78 48q-12 0 -32 -2
l-9 68q189 12 298 68q7 -34 7 -56q0 -37 -16 -68q-18 -35 -55 -83q-15 -20 -130 -179l-333 -459l-94 -376q-13 -53 -13 -81q0 -42 51 -54q25 -6 83 -8l-18 -76q-172 15 -296 15q-125 0 -301 -15zM448 1616q0 87 69 144q54 44 115 44q53 0 89 -35q34 -35 34 -87
q0 -85 -68 -142q-49 -41 -111 -41q-54 0 -89 32q-39 35 -39 85zM861 1616q0 87 70 144q53 44 114 44q54 0 89 -35q34 -35 34 -87q0 -85 -68 -142q-49 -41 -111 -41q-54 0 -89 32q-39 35 -39 85z" />
    <glyph glyph-name="circumflex" unicode="&#x2c6;" horiz-adv-x="1024" 
d="M325 1098l417 334h19l234 -334h-78l-211 148l-286 -148h-95z" />
    <glyph glyph-name="tilde" unicode="&#x2dc;" horiz-adv-x="1024" 
d="M332 1155q67 106 106 145q77 77 162 77q61 0 139 -46q83 -50 120 -50q52 0 96 39q22 19 60 63l61 -18q-65 -117 -132 -177q-66 -60 -150 -60q-44 0 -85 21q-19 9 -82 47q-52 31 -90 31q-71 0 -144 -92z" />
    <glyph glyph-name="uni2000" unicode="&#x2000;" horiz-adv-x="926" 
 />
    <glyph glyph-name="uni2001" unicode="&#x2001;" horiz-adv-x="1853" 
 />
    <glyph glyph-name="uni2002" unicode="&#x2002;" horiz-adv-x="926" 
 />
    <glyph glyph-name="uni2003" unicode="&#x2003;" horiz-adv-x="1853" 
 />
    <glyph glyph-name="uni2004" unicode="&#x2004;" horiz-adv-x="617" 
 />
    <glyph glyph-name="uni2005" unicode="&#x2005;" horiz-adv-x="463" 
 />
    <glyph glyph-name="uni2006" unicode="&#x2006;" horiz-adv-x="308" 
 />
    <glyph glyph-name="uni2007" unicode="&#x2007;" horiz-adv-x="308" 
 />
    <glyph glyph-name="uni2008" unicode="&#x2008;" horiz-adv-x="231" 
 />
    <glyph glyph-name="uni2009" unicode="&#x2009;" horiz-adv-x="370" 
 />
    <glyph glyph-name="uni200A" unicode="&#x200a;" horiz-adv-x="102" 
 />
    <glyph glyph-name="uni2010" unicode="&#x2010;" horiz-adv-x="449" 
d="M-17 398l51 205h450l-52 -205h-449z" />
    <glyph glyph-name="uni2011" unicode="&#x2011;" horiz-adv-x="449" 
d="M-17 398l51 205h450l-52 -205h-449z" />
    <glyph glyph-name="figuredash" unicode="&#x2012;" horiz-adv-x="449" 
d="M-17 398l51 205h450l-52 -205h-449z" />
    <glyph glyph-name="endash" unicode="&#x2013;" 
d="M136 398l51 205h814l-51 -205h-814z" />
    <glyph glyph-name="emdash" unicode="&#x2014;" horiz-adv-x="1304" 
d="M-17 398l51 205h1304l-51 -205h-1304z" />
    <glyph glyph-name="quoteleft" unicode="&#x2018;" horiz-adv-x="489" 
d="M247 1023q0 87 86 196q73 91 182 169h89q-120 -100 -168 -218q101 -10 101 -109q0 -70 -57 -117q-47 -38 -110 -38q-51 0 -84 28q-39 32 -39 89z" />
    <glyph glyph-name="quoteright" unicode="&#x2019;" horiz-adv-x="489" 
d="M227 907q120 99 168 217q-101 11 -101 109q0 70 58 117q46 38 109 38q51 0 85 -28q38 -32 38 -89q0 -86 -86 -195q-74 -93 -182 -169h-89z" />
    <glyph glyph-name="quotesinglbase" unicode="&#x201a;" horiz-adv-x="489" 
d="M-53 -215q121 100 168 218q-101 10 -101 109q0 70 58 117q47 38 109 38q51 0 85 -28q38 -32 38 -89q0 -87 -86 -196q-74 -93 -182 -169h-89z" />
    <glyph glyph-name="quotedblleft" unicode="&#x201c;" horiz-adv-x="842" 
d="M247 1023q0 87 86 196q73 91 182 169h89q-120 -100 -168 -218q101 -10 101 -109q0 -70 -57 -117q-47 -38 -110 -38q-51 0 -84 28q-39 32 -39 89zM600 1023q0 87 86 196q73 92 182 169h89q-121 -100 -168 -218q101 -10 101 -109q0 -70 -58 -117q-46 -38 -109 -38
q-51 0 -84 28q-39 32 -39 89z" />
    <glyph glyph-name="quotedblright" unicode="&#x201d;" horiz-adv-x="842" 
d="M227 907q120 99 168 217q-101 11 -101 109q0 70 58 117q46 38 109 38q51 0 85 -28q38 -32 38 -89q0 -86 -86 -195q-74 -93 -182 -169h-89zM580 907q120 99 168 217q-101 11 -101 109q0 70 57 117q47 38 110 38q51 0 84 -28q39 -32 39 -89q0 -87 -86 -195
q-74 -92 -182 -169h-89z" />
    <glyph glyph-name="quotedblbase" unicode="&#x201e;" horiz-adv-x="842" 
d="M-53 -215q121 100 168 218q-101 10 -101 109q0 70 58 117q47 38 109 38q51 0 85 -28q38 -32 38 -89q0 -87 -86 -196q-74 -93 -182 -169h-89zM300 -215q120 100 168 218q-101 10 -101 109q0 70 57 117q48 38 110 38q51 0 84 -28q39 -32 39 -89q0 -87 -86 -196
q-74 -93 -182 -169h-89z" />
    <glyph glyph-name="bullet" unicode="&#x2022;" horiz-adv-x="1365" 
d="M422 694q0 121 84 202q86 82 204 82q113 0 196 -83q84 -83 84 -201t-83 -201t-201 -83q-116 0 -199 82q-85 84 -85 202z" />
    <glyph glyph-name="ellipsis" unicode="&#x2026;" horiz-adv-x="1587" 
d="M21 104q0 79 58 137q59 60 135 60q58 0 95 -37t37 -93q0 -74 -52 -130q-57 -63 -138 -63q-56 0 -94 34q-41 36 -41 92zM550 104q0 80 58 137q59 60 135 60q58 0 95 -37q37 -36 37 -93q0 -74 -52 -130q-57 -63 -138 -63q-56 0 -94 34q-41 36 -41 92zM1079 104q0 79 58 137
q59 60 135 60q58 0 95 -37t37 -93q0 -74 -52 -130q-57 -63 -138 -63q-56 0 -94 34q-41 36 -41 92z" />
    <glyph glyph-name="uni202F" unicode="&#x202f;" horiz-adv-x="370" 
 />
    <glyph glyph-name="guilsinglleft" unicode="&#x2039;" horiz-adv-x="555" 
d="M91 489l404 478h70l-266 -478l25 -489h-62z" />
    <glyph glyph-name="guilsinglright" unicode="&#x203a;" horiz-adv-x="555" 
d="M-1 0l265 478l-24 489h62l171 -489l-404 -478h-70z" />
    <glyph glyph-name="uni205F" unicode="&#x205f;" horiz-adv-x="463" 
 />
    <glyph glyph-name="trademark" unicode="&#x2122;" horiz-adv-x="1667" 
d="M173 1144l95 221h565l-17 -221h-49v24q0 84 -34 117q-28 27 -87 27h-29l-150 -600q-6 -25 -6 -43q0 -22 30 -29q15 -3 54 -4l-13 -53q-96 9 -176 9q-81 0 -180 -9l13 53q53 1 73 9q27 10 41 67l150 600h-27q-78 0 -131 -54q-36 -38 -72 -114h-50zM705 583l13 51
q61 7 85 34q17 20 36 82q6 19 33 112l32 118l75 260q6 21 6 41q0 24 -30 30q-17 4 -55 5l13 53q68 -6 130 -6q66 0 140 6l72 -514l334 514q79 -6 142 -6q59 0 128 6l-13 -52q-54 -2 -74 -10q-30 -13 -42 -66l-113 -492q-12 -65 -12 -75q0 -24 26 -33q13 -5 55 -6l-13 -53
q-102 9 -176 9q-75 0 -180 -9l13 53q53 1 74 9q28 11 42 67l141 567l-431 -669h-24l-91 670l-151 -568q-8 -29 -8 -42q0 -23 29 -30q14 -3 53 -4l-13 -52q-66 4 -115 4q-48 0 -131 -4z" />
    <glyph glyph-name="uni25FC" unicode="&#x25fc;" horiz-adv-x="1045" 
d="M0 0v1045h1045v-1045h-1045z" />
    </font>
</defs>
</svg>
