<?xml version="1.0" standalone="no"?>
<!DOCTYPE svg PUBLIC "-//W3C//DTD SVG 1.1//EN" "http://www.w3.org/Graphics/SVG/1.1/DTD/svg11.dtd" >
<svg xmlns="http://www.w3.org/2000/svg" xmlns:xlink="http://www.w3.org/1999/xlink" version="1.1">
<metadata>
Created by FontForge 20170910 at Fri May 20 18:05:52 1994
 By Jimmy Wärting
URW Software, Copyright 1993 by URW
</metadata>
<defs>
<font id="CorporateS-Regular" horiz-adv-x="1024" >
  <font-face 
    font-family="CorpoS"
    font-weight="400"
    font-stretch="normal"
    units-per-em="2048"
    panose-1="0 0 0 0 0 0 0 0 0 0"
    ascent="1638"
    descent="-410"
    x-height="971"
    cap-height="1365"
    bbox="-368 -512 1815 1843"
    underline-thickness="132"
    underline-position="-268"
    unicode-range="U+0020-F002"
  />
<missing-glyph horiz-adv-x="512" 
d="M51 0v1365h410v-1365h-410zM410 51v1263h-308v-1263h308z" />
    <glyph glyph-name=".notdef" horiz-adv-x="512" 
d="M51 0v1365h410v-1365h-410zM410 51v1263h-308v-1263h308z" />
    <glyph glyph-name="glyph1" horiz-adv-x="0" 
 />
    <glyph glyph-name="glyph2" horiz-adv-x="512" 
 />
    <glyph glyph-name="space" unicode=" " horiz-adv-x="512" 
 />
    <glyph glyph-name="space" unicode="&#xa0;" horiz-adv-x="512" 
 />
    <glyph glyph-name="exclam" unicode="!" horiz-adv-x="510" 
d="M177 1340h156l-24 -956h-116zM255 215q48 0 82.5 -35t34.5 -83q0 -49 -34.5 -83.5t-84.5 -34.5q-48 0 -82.5 34.5t-34.5 82.5q0 50 34.5 84.5t84.5 34.5z" />
    <glyph glyph-name="quotedbl" unicode="&#x22;" horiz-adv-x="720" 
d="M272 818h-105l-24 547h153zM554 818h-106l-23 547h152z" />
    <glyph glyph-name="numbersign" unicode="#" horiz-adv-x="1229" 
d="M1114 547l-18 -113h-235l-69 -434h-129l69 434h-305l-69 -434h-128l68 434h-233l18 113h233l47 297h-233l18 113h233l65 408h129l-65 -408h304l65 408h129l-65 -408h235l-17 -113h-235l-47 -297h235zM796 844h-304l-47 -297h304z" />
    <glyph glyph-name="dollar" unicode="$" horiz-adv-x="1092" 
d="M589 1253v-477q162 -57 239 -105q172 -109 172 -307q0 -143 -93 -248q-111 -123 -318 -138v-149h-83v149q-198 15 -301.5 118.5t-111.5 294.5h147q11 -128 74.5 -195.5t191.5 -84.5v531q-170 63 -223 94q-158 95 -158 283q0 155 103.5 255t277.5 113v134h83v-134
q163 -14 257.5 -98.5t106.5 -227.5h-153q-11 83 -65 132t-146 60zM506 1254q-93 -13 -145 -51q-86 -64 -86 -171q0 -110 99 -170q29 -17 132 -56v448zM589 111q101 9 164 55q92 67 92 181q0 121 -96 192q-37 27 -160 74v-502z" />
    <glyph glyph-name="percent" unicode="%" horiz-adv-x="1173" 
d="M924 1365h127l-802 -1365h-127zM867 645q108 0 182 -94q75 -94 75 -234q0 -156 -89 -251q-72 -77 -170 -77q-110 0 -184 93q-75 95 -75 235q0 155 89 251q72 77 172 77zM866 542q-62 0 -102.5 -63t-40.5 -162q0 -98 40 -161.5t102 -63.5t102 63.5t40 161.5
q0 97 -39.5 160t-101.5 65zM310 1376q108 0 182 -94q75 -94 75 -234q0 -155 -89 -251q-72 -77 -170 -77q-110 0 -184 93q-75 95 -75 235q0 155 89 251q72 77 172 77zM309 1273q-62 0 -102.5 -63t-40.5 -162q0 -98 40 -161.5t102 -63.5t102 63.5t40 161.5q0 97 -39.5 160
t-101.5 65z" />
    <glyph glyph-name="ampersand" unicode="&#x26;" horiz-adv-x="1213" 
d="M894 628h122q1 -31 1 -43q0 -114 -20.5 -194.5t-69.5 -154.5l175 -236h-166l-93 129q-71 -75 -151 -108.5t-189 -33.5q-178 0 -289 92q-125 104 -125 274q0 116 60 206t215 207q-102 135 -129.5 190t-27.5 127q0 119 86 194q82 72 213 72q115 0 188 -59q86 -70 86 -197
q0 -96 -50 -175.5t-172 -177.5l286 -389q49 85 50 277zM477 841q91 72 130.5 131.5t39.5 126.5q0 59 -40.5 96.5t-104.5 37.5q-66 0 -111 -40t-45 -99q0 -52 20 -91t111 -162zM448 655q-88 -65 -128 -107q-86 -88 -86 -198q0 -100 71 -168q78 -75 202 -75q154 0 257 125z
" />
    <glyph glyph-name="quotesingle" unicode="'" horiz-adv-x="512" 
d="M309 818h-105l-24 547h153z" />
    <glyph glyph-name="parenleft" unicode="(" horiz-adv-x="575" 
d="M396 1377h111q-219 -318 -219 -890q0 -577 219 -897h-111q-95 119 -142 247q-106 281 -106 646q0 291 62 514t186 380z" />
    <glyph glyph-name="parenright" unicode=")" horiz-adv-x="575" 
d="M178 -410h-111q219 322 219 890q0 581 -219 897h111q248 -311 248 -893q0 -362 -104 -642q-48 -130 -144 -252z" />
    <glyph glyph-name="asterisk" unicode="*" 
d="M464 1080v251h97v-251l239 77l30 -92l-239 -77l148 -204l-79 -57l-147 203l-148 -203l-79 57l148 204l-239 77l30 93z" />
    <glyph glyph-name="plus" unicode="+" horiz-adv-x="1092" 
d="M602 740h381v-107h-381v-395h-112v395h-381v107h381v396h112v-396z" />
    <glyph glyph-name="comma" unicode="," horiz-adv-x="489" 
d="M199 -299h-129q68 71 111 148.5t54 149.5q-11 -1 -16 -1q-45 0 -77 33t-32 79q0 50 36 85t88 35q59 0 95 -44t36 -115q0 -162 -166 -370z" />
    <glyph glyph-name="hyphen" unicode="-" horiz-adv-x="562" 
d="M0 572h562v-112h-562v112z" />
    <glyph glyph-name="period" unicode="." horiz-adv-x="523" 
d="M262 215q48 0 82.5 -35t34.5 -83q0 -49 -34.5 -83.5t-83.5 -34.5t-83.5 34.5t-34.5 82.5q0 50 34.5 84.5t84.5 34.5z" />
    <glyph glyph-name="slash" unicode="/" horiz-adv-x="1168" 
d="M112 -304l803 1669h142l-802 -1669h-143z" />
    <glyph glyph-name="zero" unicode="0" horiz-adv-x="1092" 
d="M552 1351q116 0 210 -67q115 -82 173 -267q48 -152 48 -351q0 -344 -141 -539q-105 -145 -296 -145t-296 145q-141 197 -141 535q0 352 141 544q107 145 302 145zM550 1225q-135 0 -200 -120q-88 -163 -88 -442q0 -272 88 -435q64 -120 196 -120t196 120q88 164 88 438
q0 280 -88 439q-63 115 -192 120z" />
    <glyph glyph-name="one" unicode="1" horiz-adv-x="1092" 
d="M353 1039v97q131 6 194 52t89 153h103v-1341h-146v1039h-240z" />
    <glyph glyph-name="two" unicode="2" horiz-adv-x="1092" 
d="M298 946h-136q3 173 76 268q105 137 315 137q151 0 250 -77q115 -90 115 -246q0 -118 -92 -259q-29 -44 -307 -407l-134 -172l-42 -56h595v-134h-783v117q53 70 162 212q322 416 384.5 513.5t62.5 182.5q0 87 -60.5 140.5t-158.5 53.5q-228 0 -247 -273z" />
    <glyph glyph-name="three" unicode="3" horiz-adv-x="1092" 
d="M307 991h-133q7 154 86 242q106 119 296 119q185 0 285 -108q83 -90 83 -225q0 -205 -201 -295q243 -83 243 -332q0 -138 -71 -242q-113 -168 -353 -168q-191 0 -303 101.5t-112 275.5v21h135q3 -112 55 -177q72 -89 219 -89q132 0 206 73q72 72 72 199
q0 130 -79.5 195.5t-237.5 65.5q-17 0 -49 -2v132q37 -3 54 -3q106 0 173 44q96 63 96 191q0 92 -55 149q-60 63 -170 63q-208 0 -239 -230z" />
    <glyph glyph-name="four" unicode="4" horiz-adv-x="1092" 
d="M777 452h232v-129h-229v-336h-150v336h-547v115l541 903h153v-889zM635 452l4 696l-410 -696h406z" />
    <glyph glyph-name="five" unicode="5" horiz-adv-x="1092" 
d="M266 1331h611l-17 -132h-475l-56 -390q96 94 230 94q178 0 285 -121q106 -120 106 -315q0 -177 -96 -313q-121 -172 -333 -172q-162 0 -264.5 92t-113.5 248h140q17 -102 77.5 -156.5t156.5 -54.5q130 0 201 97q77 104 77 252q0 142 -69 228t-183 86q-153 0 -238 -145
l-133 15z" />
    <glyph glyph-name="six" unicode="6" horiz-adv-x="1092" 
d="M638 1362h165q-230 -251 -378 -503q72 38 151 38q149 0 253 -109q121 -126 121 -341q0 -228 -133 -360q-106 -105 -263 -105q-162 0 -272 105q-140 133 -140 360q0 198 119 417t377 498zM546 775q-103 0 -167 -74q-84 -98 -84 -257q0 -148 76 -247q67 -87 178 -87
q113 0 175 85q73 101 73 249q0 160 -84 257q-63 72 -167 74z" />
    <glyph glyph-name="seven" unicode="7" horiz-adv-x="1092" 
d="M131 1331h830v-124l-652 -1207h-165l645 1191h-658v140z" />
    <glyph glyph-name="eight" unicode="8" horiz-adv-x="1092" 
d="M334 701q-160 84 -160 284q0 169 121 274q106 92 251 92t251 -92q121 -105 121 -273q0 -200 -160 -285q195 -106 195 -332q0 -178 -125 -288q-114 -99 -282 -99t-282 99q-125 110 -125 288q0 226 195 332zM549 1227q-93 0 -154 -58q-68 -65 -68 -178q0 -112 68 -177
q61 -58 151 -58q91 0 152 58q68 65 68 178q0 103 -59.5 168t-157.5 67zM549 635q-107 0 -179 -66q-78 -73 -78 -199q0 -124 78 -197q72 -66 176 -66t176 66q78 73 78 198q0 126 -78 198q-70 64 -173 66z" />
    <glyph glyph-name="nine" unicode="9" horiz-adv-x="1092" 
d="M453 -31h-165q232 253 379 504q-72 -37 -152 -37q-146 0 -251 110q-122 130 -122 336q0 230 141 365q109 104 268 104q156 0 261 -97q65 -61 99 -151q39 -102 39 -216q0 -200 -118.5 -418.5t-378.5 -499.5zM552 1224q-105 0 -170 -75q-87 -100 -87 -261q0 -157 84 -256
q64 -74 167 -74t167 74q84 99 84 258q0 149 -67 240t-178 94z" />
    <glyph glyph-name="colon" unicode=":" horiz-adv-x="523" 
d="M262 215q48 0 82.5 -35t34.5 -83q0 -49 -34.5 -83.5t-83.5 -34.5t-83.5 34.5t-34.5 82.5q0 50 34.5 84.5t84.5 34.5zM262 971q48 0 82.5 -35t34.5 -83q0 -49 -34.5 -83.5t-83.5 -34.5t-83.5 34.5t-34.5 83.5t34.5 83.5t84.5 34.5z" />
    <glyph glyph-name="semicolon" unicode=";" horiz-adv-x="489" 
d="M231 971q48 0 82.5 -35t34.5 -83q0 -49 -34.5 -83.5t-84.5 -34.5q-48 0 -82.5 34.5t-34.5 82.5q0 50 34.5 84.5t84.5 34.5zM199 -299h-129q68 71 111 148.5t54 149.5q-11 -1 -16 -1q-45 0 -77 33t-32 79q0 50 36 85t88 35q59 0 95 -44t36 -115q0 -162 -166 -370z" />
    <glyph glyph-name="less" unicode="&#x3c;" 
d="M955 1165v-143l-733 -333l733 -333v-143l-887 414v125z" />
    <glyph glyph-name="equal" unicode="=" horiz-adv-x="1092" 
d="M109 879h874v-110h-874v110zM109 606h874v-110h-874v110z" />
    <glyph glyph-name="greater" unicode="&#x3e;" 
d="M69 213v143l733 333l-733 333v143l887 -414v-125z" />
    <glyph glyph-name="question" unicode="?" horiz-adv-x="844" 
d="M386 215q48 0 82.5 -35t34.5 -83q0 -49 -35 -83.5t-83 -34.5q-49 0 -83.5 34.5t-34.5 82.5q0 50 34.5 84.5t84.5 34.5zM458 387h-142v23v89q0 130 22 181.5t119 150.5q77 80 104.5 127.5t27.5 101.5q0 72 -45 113t-123 41q-178 0 -198 -195h-126q7 145 71 222
q92 109 266 109q138 0 218 -67q96 -80 96 -222q0 -80 -35 -142t-139 -165q-82 -81 -99.5 -125.5t-17.5 -168.5q0 -39 1 -73z" />
    <glyph glyph-name="at" unicode="@" horiz-adv-x="1502" 
d="M1015 1011h108l-84 -433q-13 -66 -13 -95q0 -45 21 -72t56 -27q69 0 128 78q99 130 99 318q0 238 -159 379q-71 63 -173.5 98t-213.5 35q-257 0 -426 -168q-178 -176 -178 -445q0 -259 163 -432q163 -174 463 -174q224 0 428 95l30 -96q-209 -97 -459 -97
q-335 0 -533 196q-95 94 -149 229t-54 281q0 206 104 378q102 170 281 257q150 73 331 73q272 0 449 -155q99 -86 152 -212q47 -113 47 -239q0 -117 -40 -223t-112 -181q-82 -86 -184 -86q-62 0 -102 37.5t-47 103.5q-96 -146 -254 -146q-130 0 -213 97q-77 92 -77 235
q0 174 110 300q101 116 249 116q166 0 227 -156zM773 929q-114 0 -184 -105q-61 -91 -61 -205q0 -94 42 -157q49 -71 145 -71q119 0 185 119q51 90 51 211q0 93 -43 147q-47 60 -135 61z" />
    <glyph glyph-name="A" unicode="A" horiz-adv-x="1158" 
d="M512 1374h134l471 -1374h-159l-122 362h-514l-122 -362h-158zM794 495l-215 679l-215 -679h430z" />
    <glyph glyph-name="B" unicode="B" horiz-adv-x="1125" 
d="M176 1365h248q238 0 335 -33q107 -37 164 -127q47 -76 47 -180q0 -228 -226 -298q297 -74 297 -347q0 -176 -114 -279q-70 -62 -168.5 -81.5t-344.5 -19.5h-238v1365zM327 777h129q179 0 257 43q102 56 102 194q0 70 -32.5 122t-90.5 74q-67 25 -244 25h-121v-458z
M327 130h137q123 0 186 7.5t109 27.5q56 23 88 83.5t32 140.5q0 85 -41.5 147t-114.5 87q-76 25 -259 25h-137v-518z" />
    <glyph glyph-name="C" unicode="C" horiz-adv-x="1232" 
d="M1120 987h-143q-59 267 -312 267q-177 0 -281 -144q-115 -159 -115 -428q0 -284 131 -448q98 -123 268 -123q143 0 228 90.5t103 262.5h144q-14 -175 -86 -290q-126 -198 -383 -198q-248 0 -399 173q-170 195 -170 530q0 374 199 568q147 142 363 142q125 0 229 -52
q191 -96 224 -350z" />
    <glyph glyph-name="D" unicode="D" horiz-adv-x="1283" 
d="M176 1365h214q176 0 273 -13q247 -32 385 -230q130 -184 130 -439q0 -279 -146 -464q-144 -182 -382 -208q-94 -11 -276 -11h-198v1365zM329 133h100q162 0 231.5 13t140.5 56q103 63 159 188t56 293q0 246 -120 395q-97 121 -257 144q-74 10 -248 10h-62v-1099z" />
    <glyph glyph-name="E" unicode="E" horiz-adv-x="1027" 
d="M329 774h554v-133h-554v-508h610v-133h-763v1365h751v-133h-598v-458z" />
    <glyph glyph-name="F" unicode="F" horiz-adv-x="998" 
d="M329 774h554v-133h-554v-641h-153v1365h751v-133h-598v-458z" />
    <glyph glyph-name="G" unicode="G" horiz-adv-x="1273" 
d="M729 678h416v-561q-195 -141 -451 -141q-259 0 -407 159q-182 197 -182 550q0 349 177 541q70 75 171 119q103 44 222 44q192 0 310 -104.5t142 -295.5h-142q-28 120 -86 180q-83 85 -225 85q-177 0 -276 -124q-129 -160 -129 -446q0 -308 147 -464q102 -109 280 -109
q162 0 311 89v346h-278v132z" />
    <glyph glyph-name="H" unicode="H" horiz-adv-x="1299" 
d="M329 778h642v587h153v-1365h-153v651h-642v-651h-153v1365h153v-587z" />
    <glyph glyph-name="I" unicode="I" horiz-adv-x="504" 
d="M331 0h-157v1365h157v-1365z" />
    <glyph glyph-name="J" unicode="J" horiz-adv-x="589" 
d="M260 1365h157v-1089q0 -144 -6 -195.5t-28 -96.5q-37 -79 -124.5 -121.5t-213.5 -42.5q-13 0 -49 2v131q129 -2 193 39q46 30 58.5 79.5t12.5 204.5v1089z" />
    <glyph glyph-name="K" unicode="K" horiz-adv-x="1143" 
d="M885 1365h185l-557 -645l611 -720h-210l-582 716zM176 1365h153v-1365h-153v1365z" />
    <glyph glyph-name="L" unicode="L" horiz-adv-x="973" 
d="M176 1365h158v-1232h584v-133h-742v1365z" />
    <glyph glyph-name="M" unicode="M" horiz-adv-x="1583" 
d="M176 1365h232l383 -1196l384 1196h232v-1365h-146v1211l-392 -1211h-155l-392 1211v-1211h-146v1365z" />
    <glyph glyph-name="N" unicode="N" horiz-adv-x="1317" 
d="M176 1365h166l656 -1136v1136h143v-1365h-167l-653 1133v-1133h-145v1365z" />
    <glyph glyph-name="O" unicode="O" horiz-adv-x="1323" 
d="M662 1389q237 0 391 -182q165 -197 165 -524q0 -326 -165 -524q-153 -182 -390 -182q-241 0 -393 182q-165 199 -165 534q0 215 79 380q83 172 233 255q108 59 245 61zM662 1254q-180 0 -283 -152q-110 -162 -110 -412q0 -264 110 -427q103 -152 283 -152q112 0 201 67
q91 68 141 200.5t50 304.5q0 260 -110 419q-104 149 -282 152z" />
    <glyph glyph-name="P" unicode="P" horiz-adv-x="1077" 
d="M176 1365h226q266 0 376 -37q121 -40 188 -154q54 -91 54 -218q0 -166 -93 -269q-69 -77 -171 -103.5t-327 -26.5h-100v-557h-153v1365zM329 690h97q175 0 254 19q178 41 178 248q0 88 -37 152t-103 90q-50 20 -110 26.5t-199 6.5h-80v-542z" />
    <glyph glyph-name="Q" unicode="Q" horiz-adv-x="1344" 
d="M1127 272l267 -289h-184l-164 170q-151 -177 -386 -177q-237 0 -389 183q-166 201 -166 524q0 320 166 523q150 183 391 183q240 0 390 -183q166 -203 166 -521q0 -228 -91 -413zM661 1255q-176 0 -279 -153q-113 -169 -113 -412q0 -257 113 -426q103 -153 280 -153
t279 153q113 170 113 419q0 254 -113 419q-104 150 -280 153z" />
    <glyph glyph-name="R" unicode="R" horiz-adv-x="1150" 
d="M176 1365h241q157 0 234 -9t146 -34q112 -43 172 -148q48 -86 48 -195q0 -271 -281 -371l360 -608h-185l-345 584h-237v-584h-153v1365zM329 717h95q126 0 178 5t100 22q153 53 153 237q0 165 -129 219q-48 20 -104 26t-200 6h-93v-515z" />
    <glyph glyph-name="S" unicode="S" horiz-adv-x="1121" 
d="M967 1012h-149q-9 102 -62 161q-73 81 -203 81q-101 0 -168 -50q-82 -62 -82 -158q0 -88 82 -144q44 -29 243 -119q132 -60 196.5 -99t100.5 -82q82 -97 82 -236q0 -193 -149 -303q-118 -86 -297 -86q-247 0 -369 158q-78 102 -88 281h150q9 -133 70 -205q84 -99 243 -99
q122 0 202 66q80 65 80 169q0 100 -82 169q-51 42 -212 115q-212 94 -280 148q-126 99 -126 255q0 168 133 269q113 86 278 86q228 0 339 -155q61 -84 68 -222z" />
    <glyph glyph-name="T" unicode="T" horiz-adv-x="948" 
d="M43 1365h863v-133h-355v-1232h-153v1232h-355v133z" />
    <glyph glyph-name="U" unicode="U" horiz-adv-x="1280" 
d="M157 1365h153v-803q0 -152 8 -211t35 -105q37 -63 113.5 -98.5t173.5 -35.5q119 0 206 53q103 64 118 217q5 50 5 180v803h153v-806q0 -163 -5.5 -218t-27.5 -110q-49 -121 -172 -190q-113 -64 -277 -64q-242 0 -375 138q-87 91 -101 225q-7 59 -7 219v806z" />
    <glyph glyph-name="V" unicode="V" horiz-adv-x="1149" 
d="M28 1365h162l389 -1187l384 1187h159l-470 -1373h-155z" />
    <glyph glyph-name="W" unicode="W" horiz-adv-x="1591" 
d="M36 1365h146l264 -1163l284 1163h131l284 -1163l267 1163h144l-327 -1373h-164l-271 1066l-269 -1066h-164z" />
    <glyph glyph-name="X" unicode="X" horiz-adv-x="1112" 
d="M65 1365h177l316 -524l318 524h177l-406 -651l427 -714h-175l-341 572l-343 -572h-174l428 714z" />
    <glyph glyph-name="Y" unicode="Y" horiz-adv-x="1048" 
d="M24 1365h176l327 -638l323 638h175l-426 -792l2 -573h-153l2 573z" />
    <glyph glyph-name="Z" unicode="Z" horiz-adv-x="1009" 
d="M107 1365h839v-106l-703 -1126h689v-133h-869v119l696 1114h-652v132z" />
    <glyph glyph-name="bracketleft" unicode="[" horiz-adv-x="575" 
d="M188 1365h307v-118h-173v-1526h173v-119h-307v1763z" />
    <glyph glyph-name="backslash" unicode="\" horiz-adv-x="1168" 
d="M1057 -304h-143l-802 1669h143z" />
    <glyph glyph-name="bracketright" unicode="]" horiz-adv-x="575" 
d="M387 -398h-307v118h173v1526h-173v119h307v-1763z" />
    <glyph glyph-name="asciicircum" unicode="^" 
d="M210 751h-156l364 618h189l364 -618h-157l-303 504z" />
    <glyph glyph-name="underscore" unicode="_" 
d="M0 -136h1024v-132h-1024v132z" />
    <glyph glyph-name="grave" unicode="`" 
d="M639 1120h-119l-298 280h205z" />
    <glyph glyph-name="a" unicode="a" horiz-adv-x="974" 
d="M272 716h-143q14 124 88 193q96 89 276 89q153 0 243 -70q53 -41 71 -103t18 -206v-364q-1 -178 27 -255h-137q-16 58 -21 131q-85 -156 -285 -156q-130 0 -213 64q-100 78 -100 216q0 207 226 291q125 47 363 86v41q0 100 -33 142q-49 61 -165 61q-185 0 -215 -160z
M685 526q-211 -38 -306 -82q-135 -63 -135 -179q0 -76 52 -123t135 -47q146 0 214 115q40 68 40 219v97z" />
    <glyph glyph-name="b" unicode="b" horiz-adv-x="1040" 
d="M151 1372h142v-542q106 168 278 168q144 0 242 -105q135 -145 135 -404q0 -278 -154 -423q-98 -91 -238 -91q-92 0 -155.5 38.5t-113.5 123.5q1 -16 1 -22q0 -58 -18 -115h-136q17 62 17 274v1098zM558 873q-115 0 -187 -97q-80 -108 -80 -295q0 -181 84 -295
q64 -86 171 -86q99 0 158 71q96 114 96 318q0 176 -64.5 278.5t-177.5 105.5z" />
    <glyph glyph-name="c" unicode="c" horiz-adv-x="953" 
d="M852 655h-142q-16 93 -46 140q-52 80 -164 80q-116 0 -179 -89q-81 -114 -81 -301q0 -182 70 -284.5t194 -102.5q189 0 213 236h143q-12 -152 -85 -243q-92 -116 -272 -116q-161 0 -269 107q-142 141 -142 402q0 269 149 415q101 99 263 99q153 0 242.5 -88.5
t105.5 -254.5z" />
    <glyph glyph-name="d" unicode="d" horiz-adv-x="1040" 
d="M889 1372v-1085q1 -225 19 -287h-140q-15 53 -15 105q0 13 1 33q-52 -87 -115.5 -125t-156.5 -38q-160 0 -260 110q-130 142 -130 392q0 255 130 407q97 114 251 114q94 0 159 -38.5t115 -125.5v538h142zM499 873q-112 0 -172 -80q-87 -115 -87 -311q0 -189 84 -302
q61 -80 170 -80q108 0 169 79q87 113 87 307q0 177 -67 280.5t-184 106.5z" />
    <glyph glyph-name="e" unicode="e" horiz-adv-x="995" 
d="M902 461h-663q5 -156 59 -244q73 -119 221 -119q81 0 133.5 34t92.5 113l134 -16q-89 -254 -361 -254q-178 0 -293 116q-133 135 -133 384q0 274 148 419q106 104 269 104q202 0 311 -169q82 -128 82 -327v-41zM753 574q-9 107 -46 177q-66 126 -203 126q-107 0 -173 -77
t-88 -226h510z" />
    <glyph glyph-name="f" unicode="f" horiz-adv-x="582" 
d="M317 971h241v-116h-236v-855h-151v855h-137v116h137v62q0 107 8.5 157.5t32.5 91.5q67 111 217 111q67 0 155 -30v-132q-78 36 -137 36q-88 0 -116 -79q-14 -38 -14 -151v-66z" />
    <glyph glyph-name="g" unicode="g" horiz-adv-x="989" 
d="M945 971v-109l-199 4q84 -78 84 -222q0 -146 -94 -219q-61 -48 -223 -83q-111 -24 -148 -41q-57 -27 -57 -65q0 -31 32.5 -42t161.5 -23q140 -14 199.5 -26t106.5 -38q61 -32 95 -91t34 -132q0 -151 -132 -231q-117 -70 -308 -70q-210 0 -333 86q-104 73 -104 195
q0 87 48.5 143.5t156.5 94.5q-104 41 -104 114q0 49 39.5 84.5t133.5 71.5q-193 77 -193 280q0 164 117 257q93 74 239 74q72 0 152 -22zM494 868q-92 0 -151 -55q-64 -60 -64 -158q0 -91 56 -144q59 -56 152 -56t150 54.5t57 144.5q0 94 -55.5 153t-144.5 61zM487 39
q-128 0 -204 -37q-92 -44 -92 -130q0 -77 84 -123.5t224 -46.5q163 0 243 62q55 43 55 108q0 165 -310 167z" />
    <glyph glyph-name="h" unicode="h" horiz-adv-x="1028" 
d="M150 1372h142v-515q106 141 279 141q87 0 157 -33.5t108 -93.5q29 -46 38 -106t9 -207v-558h-142v549q0 170 -28 224q-49 97 -171 97q-136 0 -205 -116q-45 -75 -45 -220v-534h-142v1372z" />
    <glyph glyph-name="i" unicode="i" horiz-adv-x="452" 
d="M151 971h151v-971h-151v971zM228 1384q45 0 74 -30t29 -76q0 -44 -29.5 -73.5t-74.5 -29.5q-46 0 -75.5 29t-29.5 73q0 46 30 76.5t76 30.5z" />
    <glyph glyph-name="j" unicode="j" horiz-adv-x="515" 
d="M215 971h151v-886q0 -163 -13 -232t-54 -122q-89 -114 -306 -114q-8 0 -49 1v126q21 -1 33 -1q159 0 207 84q19 32 25 83t6 174v887zM293 1384q44 0 73 -30t29 -76q0 -44 -29.5 -73.5t-74.5 -29.5t-75 29t-30 73q0 46 30 76.5t77 30.5z" />
    <glyph glyph-name="k" unicode="k" horiz-adv-x="986" 
d="M706 971h173l-405 -437l436 -534h-198l-416 529zM150 1372h143v-1372h-143v1372z" />
    <glyph glyph-name="l" unicode="l" horiz-adv-x="452" 
d="M150 1372h151v-1372h-151v1372z" />
    <glyph glyph-name="m" unicode="m" horiz-adv-x="1567" 
d="M127 971h141q19 -53 19 -134q89 161 282 161q195 0 267 -170q97 170 299 170q182 0 251 -125q23 -43 29.5 -91.5t6.5 -186.5v-595h-142v594q0 94 -5 130.5t-22 66.5q-44 79 -162 79q-130 0 -193 -103q-39 -64 -39 -192v-575h-143v572q0 164 -20 206q-43 92 -166 92
q-63 0 -115 -28t-80 -78q-40 -69 -40 -198v-566h-143v671q0 155 -4 199t-21 101z" />
    <glyph glyph-name="n" unicode="n" horiz-adv-x="1031" 
d="M126 971h136q20 -56 19 -141q99 168 297 168q130 0 212 -68q79 -67 92 -188q5 -48 5 -184v-558h-143v549q0 169 -25 225q-45 96 -170 96q-139 0 -212 -115q-47 -75 -47 -213v-542h-142v640q0 179 -3 221.5t-19 109.5z" />
    <glyph glyph-name="o" unicode="o" horiz-adv-x="1032" 
d="M516 998q170 0 287 -121q137 -142 137 -391q0 -247 -137 -390q-116 -121 -286 -121q-174 0 -288 121q-137 145 -137 398q0 112 36 213t101 170q112 119 287 121zM516 875q-119 0 -191 -95q-85 -113 -85 -288q0 -186 85 -299q72 -95 191 -95t191 95q85 113 85 293
q0 183 -85 294q-72 93 -191 95z" />
    <glyph glyph-name="p" unicode="p" horiz-adv-x="1040" 
d="M150 -403v1085q0 130 -3.5 185t-15.5 104h141q15 -49 18 -143q99 170 274 170q139 0 232 -90q152 -149 152 -425q0 -262 -138 -409q-94 -99 -237 -99q-176 0 -280 159v-537h-143zM552 873q-110 0 -174 -85q-88 -115 -88 -303q0 -185 84 -294q70 -91 179 -91q105 0 163 77
q84 111 84 303q0 180 -66.5 285.5t-181.5 107.5z" />
    <glyph glyph-name="q" unicode="q" horiz-adv-x="1040" 
d="M746 -403v537q-104 -159 -269 -159q-147 0 -246 101q-140 140 -140 401q0 281 153 430q95 91 237 91q95 0 159 -40t109 -128q0 92 18 141h141q-18 -64 -19 -289v-1085h-143zM493 873q-99 0 -158 -72q-96 -116 -96 -323q0 -193 85 -301q60 -77 161 -77q114 0 183 93
q81 109 81 293q0 188 -87 303q-63 82 -169 84z" />
    <glyph glyph-name="r" unicode="r" horiz-adv-x="670" 
d="M136 971h137q17 -76 17 -149q0 -20 -2 -60q99 236 252 236q55 0 117 -31v-143q-82 38 -130 38q-120 0 -188 -150q-42 -94 -42 -277v-435h-145v636q-1 173 -3 219t-13 116z" />
    <glyph glyph-name="s" unicode="s" horiz-adv-x="897" 
d="M793 704h-139q-10 84 -48 122q-51 52 -150 52q-83 0 -134.5 -40.5t-51.5 -105.5q0 -60 43.5 -91.5t181.5 -72.5q115 -34 170 -59.5t86 -59.5q58 -65 58 -171q0 -132 -86 -214q-94 -89 -265 -89q-177 0 -272 84.5t-95 241.5h138q19 -206 226 -206q94 0 150 46.5t56 124.5
q0 74 -61 113q-37 23 -217 78q-147 45 -200 103q-59 65 -59 163q0 132 102 206q94 69 231 69q155 0 241.5 -76t94.5 -218z" />
    <glyph glyph-name="t" unicode="t" horiz-adv-x="642" 
d="M345 971h230v-116h-232l-9 -492q-1 -71 -1 -97q0 -86 14 -115q21 -46 94 -46q70 0 141 34v-127q-92 -32 -173 -32q-147 0 -199 88q-26 44 -26 142q0 30 5 156l12 489h-146v116h149l6 280h140z" />
    <glyph glyph-name="u" unicode="u" horiz-adv-x="1019" 
d="M145 971h142v-594q0 -145 34 -196q51 -78 166 -78q129 0 196 109q42 68 42 208v551h143v-676q0 -164 3 -203t20 -92h-141q-19 58 -20 130q-44 -82 -105 -118.5t-154 -36.5q-119 0 -202 58q-72 52 -98 123t-26 221v594z" />
    <glyph glyph-name="v" unicode="v" horiz-adv-x="883" 
d="M21 971h150l271 -815l271 815h148l-343 -983h-153z" />
    <glyph glyph-name="w" unicode="w" horiz-adv-x="1353" 
d="M31 971h148l208 -769l228 769h123l227 -769l209 769h148l-282 -983h-140l-225 763l-223 -763h-140z" />
    <glyph glyph-name="x" unicode="x" horiz-adv-x="904" 
d="M63 971h168l222 -347l226 347h174l-312 -455l351 -516h-173l-266 402l-268 -402h-172l354 516z" />
    <glyph glyph-name="y" unicode="y" horiz-adv-x="896" 
d="M33 971h153l264 -809l273 809h150l-320 -902q-68 -194 -96 -253t-75 -110q-107 -114 -283 -114q-16 0 -44 1v126q134 -3 197 50q33 27 57.5 73t60.5 149z" />
    <glyph glyph-name="z" unicode="z" horiz-adv-x="814" 
d="M88 971h684v-106l-558 -746h547v-119h-716v113l551 739h-508v119z" />
    <glyph glyph-name="braceleft" unicode="{" horiz-adv-x="575" 
d="M225 484q67 -42 91 -94t24 -153v-325q0 -129 36.5 -169t154.5 -40v-111q-18 -1 -33 -1q-165 0 -227 70t-62 256v322q0 91 -26 135t-89 62v95q63 18 89 62t26 135v322q0 186 62.5 256t227.5 70q10 0 32 -1v-111q-118 0 -154.5 -39.5t-36.5 -168.5v-325q0 -102 -24 -154
t-91 -93z" />
    <glyph glyph-name="bar" unicode="|" 
d="M440 1365h143v-1706h-143v1706z" />
    <glyph glyph-name="braceright" unicode="}" horiz-adv-x="575" 
d="M350 484q-67 41 -91 93t-24 154v325q0 129 -37 169t-154 39v111q22 1 32 1q166 0 228 -70t62 -256v-322q0 -91 25.5 -135t89.5 -62v-95q-63 -18 -89 -62t-26 -135v-322q0 -185 -62 -255.5t-226 -70.5q-16 0 -34 1v111q117 -1 154 39.5t37 169.5v325q0 101 24 153t91 94z
" />
    <glyph glyph-name="asciitilde" unicode="~" horiz-adv-x="1365" 
d="M276 1195l-85 55q41 82 75 127q81 106 204 106q77 0 230 -72q90 -42 126.5 -54t72.5 -12q59 0 100 31t88 111l88 -51q-54 -109 -110 -158q-82 -70 -182 -70q-44 0 -96.5 18t-190.5 81q-84 39 -137 39q-54 0 -96 -35t-87 -116z" />
    <glyph glyph-name="Adieresis" unicode="&#xc4;" horiz-adv-x="1158" 
d="M512 1374h134l471 -1374h-159l-122 362h-514l-122 -362h-158zM794 495l-215 679l-215 -679h430zM399 1753q47 0 80.5 -34t33.5 -82t-34 -82t-82 -34t-82 34t-34 82q0 49 34 82.5t84 33.5zM764 1753q47 0 80.5 -34t33.5 -82t-34 -82t-82 -34t-82 34t-34 82q0 49 34 82.5
t84 33.5z" />
    <glyph glyph-name="Aring" unicode="&#xc5;" horiz-adv-x="1158" 
d="M512 1374h134l471 -1374h-159l-122 362h-514l-122 -362h-158zM794 495l-215 679l-215 -679h430zM582 1843q76 0 131 -55.5t55 -132.5q0 -78 -55 -134q-55 -55 -133 -55q-79 0 -134 55q-55 56 -55 133q0 79 55.5 134t135.5 55zM581 1755q-43 0 -72.5 -29t-29.5 -72
q0 -41 29.5 -70.5t71.5 -29.5q41 0 70.5 29.5t29.5 71.5q0 41 -28.5 70t-70.5 30z" />
    <glyph glyph-name="Ccedilla" unicode="&#xc7;" horiz-adv-x="1232" 
d="M686 -23l-45 -111q194 -23 194 -175q0 -83 -59.5 -135t-154.5 -52q-69 0 -164 37v87q76 -27 114 -27q55 0 88 28.5t33 75.5q0 102 -148 102q-9 0 -31 -1l71 177q-143 25 -243 104q-236 186 -236 596q0 387 217 580q140 126 344 126q192 0 310.5 -105t143.5 -297h-142
q-60 267 -312 267q-168 0 -266 -122q-131 -162 -131 -451q0 -282 131 -446q98 -123 266 -123q144 0 230 90.5t103 261.5h144q-18 -229 -133 -351.5t-324 -135.5z" />
    <glyph glyph-name="Eacute" unicode="&#xc9;" horiz-adv-x="1028" 
d="M329 774h554v-133h-554v-508h610v-133h-763v1365h751v-133h-598v-458zM409 1497l283 280h205l-340 -280h-148z" />
    <glyph glyph-name="Ntilde" unicode="&#xd1;" horiz-adv-x="1317" 
d="M176 1365h166l656 -1136v1136h143v-1365h-167l-653 1133v-1133h-145v1365zM427 1519l-88 33q17 67 38 107q50 92 149 92q62 0 155 -53q63 -35 89 -46t51 -11q75 0 100 119l85 -33q-10 -66 -33 -108q-24 -44 -66 -70.5t-87 -26.5q-34 0 -66 12t-105 52q-81 45 -122 45
q-72 0 -100 -112z" />
    <glyph glyph-name="Odieresis" unicode="&#xd6;" horiz-adv-x="1323" 
d="M662 1389q237 0 391 -182q165 -197 165 -524q0 -326 -165 -524q-153 -182 -390 -182q-241 0 -393 182q-165 199 -165 534q0 215 79 380q83 172 233 255q108 59 245 61zM662 1254q-180 0 -283 -152q-110 -162 -110 -412q0 -264 110 -427q103 -152 283 -152q112 0 201 67
q91 68 141 200.5t50 304.5q0 260 -110 419q-104 149 -282 152zM481 1753q47 0 80.5 -34t33.5 -82t-34 -82t-82 -34t-82 34t-34 82q0 49 34 82.5t84 33.5zM846 1753q47 0 80.5 -34t33.5 -82t-34 -82t-82 -34t-82 34t-34 82q0 49 34 82.5t84 33.5z" />
    <glyph glyph-name="Udieresis" unicode="&#xdc;" horiz-adv-x="1280" 
d="M157 1365h153v-803q0 -152 8 -211t35 -105q37 -63 113.5 -98.5t173.5 -35.5q119 0 206 53q103 64 118 217q5 50 5 180v803h153v-806q0 -163 -5.5 -218t-27.5 -110q-49 -121 -172 -190q-113 -64 -277 -64q-242 0 -375 138q-87 91 -101 225q-7 59 -7 219v806zM459 1753
q47 0 80.5 -34t33.5 -82t-34 -82t-82 -34t-82 34t-34 82q0 49 34 82.5t84 33.5zM824 1753q47 0 80.5 -34t33.5 -82t-34 -82t-82 -34t-82 34t-34 82q0 49 34 82.5t84 33.5z" />
    <glyph glyph-name="aacute" unicode="&#xe1;" horiz-adv-x="974" 
d="M272 716h-143q14 124 88 193q96 89 276 89q153 0 243 -70q53 -41 71 -103t18 -206v-364q-1 -178 27 -255h-137q-16 58 -21 131q-85 -156 -285 -156q-130 0 -213 64q-100 78 -100 216q0 207 226 291q125 47 363 86v41q0 100 -33 142q-49 61 -165 61q-185 0 -215 -160z
M685 526q-211 -38 -306 -82q-135 -63 -135 -179q0 -76 52 -123t135 -47q146 0 214 115q40 68 40 219v97zM370 1120l212 280h205l-297 -280h-120z" />
    <glyph glyph-name="agrave" unicode="&#xe0;" horiz-adv-x="974" 
d="M272 716h-143q14 124 88 193q96 89 276 89q153 0 243 -70q53 -41 71 -103t18 -206v-364q-1 -178 27 -255h-137q-16 58 -21 131q-85 -156 -285 -156q-130 0 -213 64q-100 78 -100 216q0 207 226 291q125 47 363 86v41q0 100 -33 142q-49 61 -165 61q-185 0 -215 -160z
M685 526q-211 -38 -306 -82q-135 -63 -135 -179q0 -76 52 -123t135 -47q146 0 214 115q40 68 40 219v97zM616 1120h-119l-298 280h205z" />
    <glyph glyph-name="acircumflex" unicode="&#xe2;" horiz-adv-x="974" 
d="M272 716h-143q14 124 88 193q96 89 276 89q153 0 243 -70q53 -41 71 -103t18 -206v-364q-1 -178 27 -255h-137q-16 58 -21 131q-85 -156 -285 -156q-130 0 -213 64q-100 78 -100 216q0 207 226 291q125 47 363 86v41q0 100 -33 142q-49 61 -165 61q-185 0 -215 -160z
M685 526q-211 -38 -306 -82q-135 -63 -135 -179q0 -76 52 -123t135 -47q146 0 214 115q40 68 40 219v97zM178 1126l232 287h164l232 -287h-139l-175 193l-175 -193h-139z" />
    <glyph glyph-name="adieresis" unicode="&#xe4;" horiz-adv-x="974" 
d="M272 716h-143q14 124 88 193q96 89 276 89q153 0 243 -70q53 -41 71 -103t18 -206v-364q-1 -178 27 -255h-137q-16 58 -21 131q-85 -156 -285 -156q-130 0 -213 64q-100 78 -100 216q0 207 226 291q125 47 363 86v41q0 100 -33 142q-49 61 -165 61q-185 0 -215 -160z
M685 526q-211 -38 -306 -82q-135 -63 -135 -179q0 -76 52 -123t135 -47q146 0 214 115q40 68 40 219v97zM322 1376q44 0 75 -31.5t31 -76.5q0 -44 -31.5 -75.5t-75.5 -31.5q-45 0 -76.5 31.5t-31.5 75.5q0 45 31.5 76.5t77.5 31.5zM671 1377q44 0 75.5 -32t31.5 -76
q0 -45 -31.5 -76.5t-76.5 -31.5t-76.5 31.5t-31.5 76.5t32 76.5t77 31.5z" />
    <glyph glyph-name="atilde" unicode="&#xe3;" horiz-adv-x="974" 
d="M272 716h-143q14 124 88 193q96 89 276 89q153 0 243 -70q53 -41 71 -103t18 -206v-364q-1 -178 27 -255h-137q-16 58 -21 131q-85 -156 -285 -156q-130 0 -213 64q-100 78 -100 216q0 207 226 291q125 47 363 86v41q0 100 -33 142q-49 61 -165 61q-185 0 -215 -160z
M685 526q-211 -38 -306 -82q-135 -63 -135 -179q0 -76 52 -123t135 -47q146 0 214 115q40 68 40 219v97zM269 1145l-83 19q41 213 174 213q57 0 138 -53q88 -58 125 -58q67 0 91 119l83 -20q-11 -89 -48 -146q-47 -74 -121 -74q-58 0 -149 58q-86 54 -120 54q-65 0 -90 -112
z" />
    <glyph glyph-name="aring" unicode="&#xe5;" horiz-adv-x="974" 
d="M272 716h-143q14 124 88 193q96 89 276 89q153 0 243 -70q53 -41 71 -103t18 -206v-364q-1 -178 27 -255h-137q-16 58 -21 131q-85 -156 -285 -156q-130 0 -213 64q-100 78 -100 216q0 207 226 291q125 47 363 86v41q0 100 -33 142q-49 61 -165 61q-185 0 -215 -160z
M685 526q-211 -38 -306 -82q-135 -63 -135 -179q0 -76 52 -123t135 -47q146 0 214 115q40 68 40 219v97zM499 1469q76 0 131 -55.5t55 -132.5q0 -79 -55 -134t-133 -55q-79 0 -134 55q-55 56 -55 133q0 79 55.5 134t135.5 55zM498 1381q-43 0 -72.5 -29t-29.5 -72
q0 -41 29.5 -70.5t71.5 -29.5q41 0 70.5 29.5t29.5 71.5q0 41 -28.5 70t-70.5 30z" />
    <glyph glyph-name="ccedilla" unicode="&#xe7;" horiz-adv-x="953" 
d="M509 -26l-41 -88q175 -24 175 -154q0 -75 -54.5 -122.5t-140.5 -47.5q-70 0 -153 35v78l27 -8q51 -16 83 -16q50 0 79.5 25.5t29.5 69.5q0 50 -38.5 72.5t-126.5 22.5l67 143q-114 30 -182 98q-142 142 -142 401q0 270 149 416q101 99 262 99q154 0 243.5 -88.5
t105.5 -254.5h-142q-16 94 -46 140q-52 80 -164 80q-116 0 -179 -89q-81 -114 -81 -302q0 -181 70 -283.5t194 -102.5q189 0 213 236h143q-14 -172 -102 -263t-249 -97z" />
    <glyph glyph-name="eacute" unicode="&#xe9;" horiz-adv-x="995" 
d="M902 461h-663q5 -156 59 -244q73 -119 221 -119q81 0 133.5 34t92.5 113l134 -16q-89 -254 -361 -254q-178 0 -293 116q-133 135 -133 384q0 274 148 419q106 104 269 104q202 0 311 -169q82 -128 82 -327v-41zM753 574q-9 107 -46 177q-66 126 -203 126q-107 0 -173 -77
t-88 -226h510zM389 1120l212 280h205l-297 -280h-120z" />
    <glyph glyph-name="egrave" unicode="&#xe8;" horiz-adv-x="995" 
d="M902 461h-663q5 -156 59 -244q73 -119 221 -119q81 0 133.5 34t92.5 113l134 -16q-89 -254 -361 -254q-178 0 -293 116q-133 135 -133 384q0 274 148 419q106 104 269 104q202 0 311 -169q82 -128 82 -327v-41zM753 574q-9 107 -46 177q-66 126 -203 126q-107 0 -173 -77
t-88 -226h510zM634 1120h-119l-298 280h205z" />
    <glyph glyph-name="ecircumflex" unicode="&#xea;" horiz-adv-x="995" 
d="M902 461h-663q5 -156 59 -244q73 -119 221 -119q81 0 133.5 34t92.5 113l134 -16q-89 -254 -361 -254q-178 0 -293 116q-133 135 -133 384q0 274 148 419q106 104 269 104q202 0 311 -169q82 -128 82 -327v-41zM753 574q-9 107 -46 177q-66 126 -203 126q-107 0 -173 -77
t-88 -226h510zM195 1126l232 287h164l232 -287h-139l-175 193l-175 -193h-139z" />
    <glyph glyph-name="edieresis" unicode="&#xeb;" horiz-adv-x="995" 
d="M902 461h-663q5 -156 59 -244q73 -119 221 -119q81 0 133.5 34t92.5 113l134 -16q-89 -254 -361 -254q-178 0 -293 116q-133 135 -133 384q0 274 148 419q106 104 269 104q202 0 311 -169q82 -128 82 -327v-41zM753 574q-9 107 -46 177q-66 126 -203 126q-107 0 -173 -77
t-88 -226h510zM338 1376q44 0 75 -31.5t31 -76.5q0 -44 -31.5 -75.5t-75.5 -31.5q-45 0 -76.5 31.5t-31.5 75.5q0 45 31.5 76.5t77.5 31.5zM687 1377q44 0 75.5 -32t31.5 -76q0 -45 -31.5 -76.5t-76.5 -31.5t-76.5 31.5t-31.5 76.5t32 76.5t77 31.5z" />
    <glyph glyph-name="iacute" unicode="&#xed;" horiz-adv-x="452" 
d="M148 971h151v-971h-151v971zM128 1120l164 280h192l-243 -280h-113z" />
    <glyph glyph-name="igrave" unicode="&#xec;" horiz-adv-x="452" 
d="M151 971h151v-971h-151v971zM323 1120h-113l-243 280h192z" />
    <glyph glyph-name="icircumflex" unicode="&#xee;" horiz-adv-x="452" 
d="M151 971h151v-971h-151v971zM-40 1126l184 286h165l183 -286h-131l-135 193l-133 -193h-133z" />
    <glyph glyph-name="idieresis" unicode="&#xef;" horiz-adv-x="452" 
d="M150 971h151v-971h-151v971zM85 1376q44 0 75 -31.5t31 -76.5q0 -44 -31.5 -75.5t-75.5 -31.5q-45 0 -76.5 31.5t-31.5 75.5q0 45 31.5 76.5t77.5 31.5zM369 1377q44 0 75.5 -32t31.5 -76q0 -45 -31.5 -76.5t-76.5 -31.5t-76.5 31.5t-31.5 76.5t32 76.5t77 31.5z" />
    <glyph glyph-name="ntilde" unicode="&#xf1;" horiz-adv-x="1031" 
d="M126 971h136q20 -56 19 -141q99 168 297 168q130 0 212 -68q79 -67 92 -188q5 -48 5 -184v-558h-143v549q0 169 -25 225q-45 96 -170 96q-139 0 -212 -115q-47 -75 -47 -213v-542h-142v640q0 179 -3 221.5t-19 109.5zM275 1145l-83 19q41 213 174 213q57 0 138 -53
q88 -58 125 -58q67 0 91 119l83 -20q-11 -89 -48 -146q-47 -74 -121 -74q-58 0 -149 58q-86 54 -120 54q-65 0 -90 -112z" />
    <glyph glyph-name="oacute" unicode="&#xf3;" horiz-adv-x="1032" 
d="M516 998q170 0 287 -121q137 -142 137 -391q0 -247 -137 -390q-116 -121 -286 -121q-174 0 -288 121q-137 145 -137 398q0 112 36 213t101 170q112 119 287 121zM516 875q-119 0 -191 -95q-85 -113 -85 -288q0 -186 85 -299q72 -95 191 -95t191 95q85 113 85 293
q0 183 -85 294q-72 93 -191 95zM398 1120l212 280h205l-297 -280h-120z" />
    <glyph glyph-name="ograve" unicode="&#xf2;" horiz-adv-x="1032" 
d="M516 998q170 0 287 -121q137 -142 137 -391q0 -247 -137 -390q-116 -121 -286 -121q-174 0 -288 121q-137 145 -137 398q0 112 36 213t101 170q112 119 287 121zM516 875q-119 0 -191 -95q-85 -113 -85 -288q0 -186 85 -299q72 -95 191 -95t191 95q85 113 85 293
q0 183 -85 294q-72 93 -191 95zM638 1120h-119l-298 280h205z" />
    <glyph glyph-name="ocircumflex" unicode="&#xf4;" horiz-adv-x="1032" 
d="M516 998q170 0 287 -121q137 -142 137 -391q0 -247 -137 -390q-116 -121 -286 -121q-174 0 -288 121q-137 145 -137 398q0 112 36 213t101 170q112 119 287 121zM516 875q-119 0 -191 -95q-85 -113 -85 -288q0 -186 85 -299q72 -95 191 -95t191 95q85 113 85 293
q0 183 -85 294q-72 93 -191 95zM202 1126l232 287h164l232 -287h-139l-175 193l-175 -193h-139z" />
    <glyph glyph-name="odieresis" unicode="&#xf6;" horiz-adv-x="1032" 
d="M516 998q170 0 287 -121q137 -142 137 -391q0 -247 -137 -390q-116 -121 -286 -121q-174 0 -288 121q-137 145 -137 398q0 112 36 213t101 170q112 119 287 121zM516 875q-119 0 -191 -95q-85 -113 -85 -288q0 -186 85 -299q72 -95 191 -95t191 95q85 113 85 293
q0 183 -85 294q-72 93 -191 95zM343 1376q44 0 75 -31.5t31 -76.5q0 -44 -31.5 -75.5t-75.5 -31.5q-45 0 -76.5 31.5t-31.5 75.5q0 45 31.5 76.5t77.5 31.5zM692 1377q44 0 75.5 -32t31.5 -76q0 -45 -31.5 -76.5t-76.5 -31.5t-76.5 31.5t-31.5 76.5t32 76.5t77 31.5z" />
    <glyph glyph-name="otilde" unicode="&#xf5;" horiz-adv-x="1032" 
d="M516 998q170 0 287 -121q137 -142 137 -391q0 -247 -137 -390q-116 -121 -286 -121q-174 0 -288 121q-137 145 -137 398q0 112 36 213t101 170q112 119 287 121zM516 875q-119 0 -191 -95q-85 -113 -85 -288q0 -186 85 -299q72 -95 191 -95t191 95q85 113 85 293
q0 183 -85 294q-72 93 -191 95zM309 1145l-83 19q41 213 174 213q57 0 138 -53q88 -58 125 -58q67 0 91 119l83 -20q-11 -89 -48 -146q-47 -74 -121 -74q-58 0 -149 58q-86 54 -120 54q-65 0 -90 -112z" />
    <glyph glyph-name="uacute" unicode="&#xfa;" horiz-adv-x="1019" 
d="M145 971h142v-594q0 -145 34 -196q51 -78 166 -78q129 0 196 109q42 68 42 208v551h143v-676q0 -164 3 -203t20 -92h-141q-19 58 -20 130q-44 -82 -105 -118.5t-154 -36.5q-119 0 -202 58q-72 52 -98 123t-26 221v594zM376 1120l212 280h205l-297 -280h-120z" />
    <glyph glyph-name="ugrave" unicode="&#xf9;" horiz-adv-x="1019" 
d="M145 971h142v-594q0 -145 34 -196q51 -78 166 -78q129 0 196 109q42 68 42 208v551h143v-676q0 -164 3 -203t20 -92h-141q-19 58 -20 130q-44 -82 -105 -118.5t-154 -36.5q-119 0 -202 58q-72 52 -98 123t-26 221v594zM631 1120h-119l-298 280h205z" />
    <glyph glyph-name="ucircumflex" unicode="&#xfb;" horiz-adv-x="1019" 
d="M145 971h142v-594q0 -145 34 -196q51 -78 166 -78q129 0 196 109q42 68 42 208v551h143v-676q0 -164 3 -203t20 -92h-141q-19 58 -20 130q-44 -82 -105 -118.5t-154 -36.5q-119 0 -202 58q-72 52 -98 123t-26 221v594zM194 1126l232 287h164l232 -287h-139l-175 193
l-175 -193h-139z" />
    <glyph glyph-name="udieresis" unicode="&#xfc;" horiz-adv-x="1019" 
d="M145 971h142v-594q0 -145 34 -196q51 -78 166 -78q129 0 196 109q42 68 42 208v551h143v-676q0 -164 3 -203t20 -92h-141q-19 58 -20 130q-44 -82 -105 -118.5t-154 -36.5q-119 0 -202 58q-72 52 -98 123t-26 221v594zM335 1376q44 0 75 -31.5t31 -76.5
q0 -44 -31.5 -75.5t-75.5 -31.5q-45 0 -76.5 31.5t-31.5 75.5q0 45 31.5 76.5t77.5 31.5zM684 1377q44 0 75.5 -32t31.5 -76q0 -45 -31.5 -76.5t-76.5 -31.5t-76.5 31.5t-31.5 76.5t32 76.5t77 31.5z" />
    <glyph glyph-name="dagger" unicode="&#x2020;" 
d="M445 1331h139v-366h363v-119h-363v-1118h-139v1118h-369v119h369v366z" />
    <glyph glyph-name="degree" unicode="&#xb0;" 
d="M512 1389q120 0 205 -83q85 -82 85 -199t-84 -200q-86 -84 -205 -84q-121 0 -206 84q-85 83 -85 203q0 115 85 196q85 82 205 83zM512 1296q-80 0 -137 -56q-56 -54 -56 -131q0 -81 56 -136q57 -56 137 -56t137 56q56 55 56 134q0 78 -56 133t-137 56z" />
    <glyph glyph-name="cent" unicode="&#xa2;" horiz-adv-x="1092" 
d="M592 1077v-773q175 23 194 234h144q-7 -151 -99.5 -249t-238.5 -109v-208h-82v212q-106 17 -179 76q-170 138 -170 421q0 212 91.5 347.5t258.5 169.5v194h83v-192q146 -8 230 -96t97 -245h-145q-10 107 -52.5 157.5t-131.5 60.5zM511 1071q-69 -25 -108 -74
q-96 -119 -96 -313q0 -216 113 -326q32 -32 91 -49v762z" />
    <glyph glyph-name="sterling" unicode="&#xa3;" horiz-adv-x="1092" 
d="M465 758h307v-120h-327q-55 -363 -144 -518q94 19 197 19q39 0 158 -3h41q94 0 128.5 33.5t39.5 130.5h130q1 -14 1 -18q0 -137 -77 -216q-41 -40 -88.5 -53t-157.5 -13h-563q56 93 98.5 241.5t83.5 395.5h-196v121h218q46 274 76 379q41 145 116 199q70 51 173 51
q161 0 224 -109q33 -57 39 -171h-136q-7 84 -35 117.5t-92 33.5q-106 0 -141 -121q-27 -95 -67 -340z" />
    <glyph glyph-name="section" unicode="&#xa7;" 
d="M866 1012h-132q-10 100 -47 147q-56 72 -171 72q-88 0 -143 -44q-63 -49 -63 -131q0 -62 35.5 -99.5t158.5 -105.5q216 -119 277 -165q103 -79 103 -197q0 -161 -179 -260q74 -57 106 -115t32 -136q0 -148 -96.5 -232.5t-264.5 -84.5q-361 0 -368 351h132
q11 -101 43 -147q60 -84 193 -84q95 0 150 41q73 54 73 154q0 55 -26.5 93t-95.5 82q-47 31 -249 146q-107 62 -156.5 126t-49.5 142q0 150 186 251q-75 52 -108.5 107t-33.5 129q0 145 120 233q91 66 224 66q161 0 252 -88.5t98 -250.5zM420 750q-154 -74 -154 -180
q0 -61 66.5 -116.5t268.5 -162.5q69 33 107 82t38 105q0 76 -75 125q-99 66 -251 147z" />
    <glyph glyph-name="bullet" unicode="&#x2022;" horiz-adv-x="1365" 
d="M689 978q113 0 196 -83q84 -83 84 -201t-83 -201t-201 -83q-116 0 -199 82q-85 84 -85 202q0 121 84 202q86 82 204 82z" />
    <glyph glyph-name="paragraph" unicode="&#xb6;" horiz-adv-x="1187" 
d="M449 -202v846h-30q-115 0 -209 52q-78 44 -122.5 125t-44.5 179q0 100 45.5 182.5t126.5 126.5q101 56 305 56h523v-116h-123v-1451h-128v1451h-215v-1451h-128z" />
    <glyph glyph-name="germandbls" unicode="&#xdf;" horiz-adv-x="1036" 
d="M140 0v869q0 167 9 232.5t38 119.5q41 75 123 116.5t188 41.5q149 0 244 -80q109 -93 109 -244q0 -214 -231 -283q324 -62 324 -384q0 -194 -118 -308q-97 -94 -234 -94q-73 0 -151 34v131q70 -37 143 -37q96 0 153 74q59 77 59 199q0 154 -101.5 236.5t-293.5 83.5v123
h40q124 0 194 57t70 159q0 96 -57 153t-153 57q-143 0 -187 -110q-17 -43 -21.5 -89t-4.5 -180v-877h-142z" />
    <glyph glyph-name="registered" unicode="&#xae;" horiz-adv-x="1617" 
d="M817 1391q190 0 360 -104q171 -105 261 -281q77 -152 77 -321q0 -198 -104 -369q-104 -169 -282 -260q-152 -77 -321 -77q-198 0 -368 104t-261 282q-77 151 -77 319q0 200 104 370q102 168 282 260q150 77 329 77zM816 1310q-260 0 -441 -181q-87 -88 -134 -204
q-48 -117 -48 -243q0 -175 91 -326t246 -231q131 -68 279 -68q254 0 433 182q87 89 135 205q47 116 47 240q0 176 -91 329q-89 148 -246 229q-122 64 -271 68zM564 1090h158q166 0 241 -26q66 -23 104.5 -79.5t38.5 -129.5q0 -162 -173 -222l228 -362h-133l-216 344h-138
v-344h-110v819zM674 708h53q124 0 171 15q92 30 92 133q0 92 -77 123q-46 18 -188 18h-51v-289z" />
    <glyph glyph-name="copyright" unicode="&#xa9;" horiz-adv-x="1616" 
d="M817 1391q190 0 361 -104q170 -105 260 -281q77 -152 77 -321q0 -199 -104 -369q-104 -169 -282 -260q-151 -77 -321 -77q-199 0 -369 104q-169 104 -260 282q-77 151 -77 319q0 200 104 370q102 168 282 260q149 77 329 77zM816 1307q-260 0 -439 -180
q-86 -88 -134 -204q-47 -116 -47 -241q0 -173 91 -324q90 -151 244 -231q130 -67 278 -67q253 0 431 181q87 88 134 204q47 115 47 239q0 175 -91 327q-88 148 -244 229q-122 63 -270 67zM1130 866h-104q-37 157 -192 157q-108 0 -172 -83q-71 -91 -71 -247
q0 -152 65.5 -240.5t179.5 -88.5q182 0 202 208h105q-8 -110 -57 -182q-82 -120 -247 -120q-156 0 -256 103q-109 113 -109 318q0 225 128 340q95 86 234 86q125 0 201.5 -65.5t92.5 -185.5z" />
    <glyph glyph-name="trademark" unicode="&#x2122;" horiz-adv-x="1596" 
d="M20 1365h556v-93h-223v-726h-110v726h-223v93zM692 1365h158l246 -688l246 688h158v-819h-106v676l-244 -676h-108l-244 676v-676h-106v819z" />
    <glyph glyph-name="acute" unicode="&#xb4;" 
d="M431 1120l212 280h205l-297 -280h-120z" />
    <glyph glyph-name="dieresis" unicode="&#xa8;" 
d="M339 1376q44 0 75 -31.5t31 -76.5q0 -44 -31.5 -75.5t-75.5 -31.5q-45 0 -76.5 31.5t-31.5 75.5q0 45 31.5 76.5t77.5 31.5zM688 1377q44 0 75.5 -32t31.5 -76q0 -45 -31.5 -76.5t-76.5 -31.5t-76.5 31.5t-31.5 76.5t32 76.5t77 31.5z" />
    <glyph glyph-name="notequal" unicode="&#x2260;" 
d="M558 913l112 231l99 -40l-92 -191h279v-128h-338l-91 -192h429v-128h-488l-113 -236l-100 39l93 197h-280v128h339l92 192h-431v128h490z" />
    <glyph glyph-name="AE" unicode="&#xc6;" horiz-adv-x="1745" 
d="M824 1365h828v-133h-590v-459h542v-133h-542v-507h594v-133h-751v363h-488l-204 -363h-171zM905 496v734l-412 -734h412z" />
    <glyph glyph-name="Oslash" unicode="&#xd8;" horiz-adv-x="1323" 
d="M1003 1259l79 106h127l-133 -186q142 -204 142 -508q0 -239 -97 -415q-88 -161 -245 -232q-104 -47 -218 -47q-98 0 -173 29t-168 104l-79 -110h-125l130 188q-44 77 -70 134q-68 155 -68 361q0 365 200 558q152 148 362 148q93 0 165.5 -28t170.5 -102zM914 1140
q-99 115 -258 115q-166 0 -263 -136q-124 -173 -124 -433q0 -203 76 -367zM406 227q64 -64 119 -90t130 -26q114 0 204 64q98 70 151 224q44 128 44 279q0 220 -78 369z" />
    <glyph glyph-name="infinity" unicode="&#x221e;" horiz-adv-x="1365" 
d="M686 601q-151 -217 -338 -217q-156 0 -244 110q-66 84 -66 207q0 174 137 260q78 50 174 50q185 0 331 -217q148 217 340 217q160 0 247 -116q61 -82 61 -200q0 -149 -97 -235q-87 -77 -209 -77q-191 0 -336 218zM755 698q64 -102 122.5 -147t127.5 -45q84 0 136 61
q45 52 45 130q0 99 -69 152q-51 39 -113 39q-105 0 -193 -110q-11 -14 -34 -46.5t-22 -33.5zM611 697q-67 104 -124 147.5t-127 43.5q-83 0 -135 -61q-45 -52 -45 -130q0 -99 69 -151q51 -40 114 -40q105 0 191 110q12 15 35 47.5t22 33.5z" />
    <glyph glyph-name="plusminus" unicode="&#xb1;" horiz-adv-x="1092" 
d="M602 752h381v-107h-381v-382h-112v382h-381v107h381v395h112v-395zM109 169h874v-110h-874v110z" />
    <glyph glyph-name="lessequal" unicode="&#x2264;" 
d="M955 1242v-137l-733 -324l733 -324v-137l-887 397v124zM955 259v-134h-887v134h887z" />
    <glyph glyph-name="greaterequal" unicode="&#x2265;" 
d="M68 320v137l733 324l-733 324v137l887 -401v-125zM68 125v134h887v-134h-887z" />
    <glyph glyph-name="yen" unicode="&#xa5;" horiz-adv-x="1092" 
d="M789 870h198v-101h-251l-83 -160h334v-101h-357v-508h-153v508h-372v101h348l-86 160h-262v101h208l-266 495h174l330 -641l327 641h167z" />
    <glyph glyph-name="mu" unicode="&#xb5;" 
d="M98 -343v1326h143v-558q0 -111 17 -169t63 -101q75 -71 184 -71q126 0 204 99q41 52 57.5 111t16.5 150v539h143v-983h-143v178q-39 -87 -85 -130q-80 -74 -197 -74q-87 0 -148.5 36t-111.5 116v-469h-143z" />
    <glyph glyph-name="partialdiff" unicode="&#x2202;" 
d="M176 1245l19 128q172 -24 283 -72q253 -108 382 -364q100 -199 100 -437q0 -197 -83 -324q-65 -99 -169 -152q-91 -46 -194 -46q-152 0 -274 97q-66 53 -109 124q-67 111 -67 241q0 141 78 261q64 99 169 149q86 41 181 41q99 0 167 -34.5t136 -119.5q-60 150 -104 216.5
t-124 129.5q-86 68 -180 107t-211 55zM523 782q-118 0 -206 -83q-49 -47 -78 -119t-29 -147q0 -154 102 -258q86 -86 201 -86q114 0 199 86q102 103 102 270q0 173 -106 266q-79 69 -185 71z" />
    <glyph glyph-name="summation" unicode="&#x2211;" horiz-adv-x="1365" 
d="M1222 1536v-466h-130l-13 331h-861l517 -848l-517 -931h880l7 328h137v-462h-1184v151l509 914l-509 835v148h1164z" />
    <glyph glyph-name="product" unicode="&#x220f;" horiz-adv-x="1428" 
d="M75 1536h1278v-134h-162v-1780h162v-134h-474v134h169v1780h-668v-1780h168v-134h-473v134h162v1780h-162v134z" />
    <glyph glyph-name="pi" unicode="&#x3c0;" horiz-adv-x="1180" 
d="M208 0v852h-152v129h1068v-129h-150v-852h-143v852h-480v-852h-143z" />
    <glyph glyph-name="integral" unicode="&#x222b;" 
d="M200 -489l32 127q53 -20 92 -20q95 0 110 91q6 35 6 154v1273q0 195 18 253q20 69 81.5 108.5t147.5 39.5q56 0 136 -23l-32 -127q-52 20 -91 20q-96 0 -111 -91q-4 -25 -6 -217v-1210q0 -151 -7.5 -205.5t-32.5 -93.5q-64 -99 -227 -99q-62 0 -116 20z" />
    <glyph glyph-name="ordfeminine" unicode="&#xaa;" 
d="M379 1199h-99q15 183 235 183q159 0 200 -99q15 -37 15 -135v-221q-1 -110 19 -161h-97q-12 39 -14 68q-37 -46 -76.5 -65t-100.5 -19q-85 0 -137 40q-65 49 -65 135q0 129 145 184q72 27 228 55v28q0 106 -121 106q-114 0 -132 -99zM632 1088q-155 -31 -212.5 -64
t-57.5 -91q0 -45 30.5 -72t82.5 -27q80 0 118.5 48.5t38.5 150.5v55zM236 655h536v-80h-536v80z" />
    <glyph glyph-name="ordmasculine" unicode="&#xba;" 
d="M511 1382q109 0 184 -76q88 -88 88 -239q0 -153 -88 -242q-74 -76 -187 -76q-106 0 -180 76q-88 89 -88 241q0 151 88 240q73 74 183 76zM511 1297q-75 0 -121.5 -64t-46.5 -168q0 -109 53 -175q44 -56 113 -56q78 0 124.5 63t46.5 169q0 104 -46 167t-123 64zM243 655
h537v-80h-537v80z" />
    <glyph glyph-name="Omega" unicode="&#x2126;" horiz-adv-x="1365" 
d="M58 0v129h371q-371 220 -371 615q0 307 222 502q173 152 403 152q231 0 403 -152q221 -195 221 -503q0 -396 -370 -614h370v-129h-533v117q146 83 223 171q163 185 163 440q0 246 -165 409q-134 132 -309 132q-171 0 -303 -116q-178 -157 -178 -426q0 -391 388 -610v-117
h-535z" />
    <glyph glyph-name="ae" unicode="&#xe6;" horiz-adv-x="1579" 
d="M1487 465h-666q2 -157 58 -245q78 -123 231 -123q155 0 227 149l133 -16q-23 -85 -86 -151q-101 -104 -272 -104q-121 0 -215 55t-146 157q-45 -89 -101 -133q-96 -79 -238 -79q-125 0 -213 62q-103 72 -103 204q0 130 106 216q147 120 471 121v61q0 128 -30 172
q-45 65 -156 65q-177 0 -224 -171h-136q16 119 91 194q99 99 274 99q236 0 298 -169q47 71 96 106q87 63 207 63q185 0 294 -143q100 -131 100 -359v-31zM1328 577q-7 123 -50 192q-67 108 -189 108q-104 0 -173 -79t-88 -221h500zM673 466h-26q-110 0 -202 -22
q-201 -47 -201 -196q0 -69 50 -111t132 -42q143 0 209 114q38 65 38 190v67z" />
    <glyph glyph-name="oslash" unicode="&#xf8;" horiz-adv-x="1032" 
d="M179 154q-87 136 -87 321q0 257 148 408q113 115 278 115q82 0 140.5 -23t134.5 -85l69 79h116l-124 -152l9 -17q44 -82 60.5 -147.5t16.5 -160.5q0 -257 -148 -403q-115 -114 -279 -114q-78 0 -151.5 28t-118.5 74l-68 -77h-120zM278 268l427 519q-86 88 -185 88
q-113 0 -186 -90q-94 -117 -94 -312q0 -110 38 -205zM755 699l-424 -519q26 -36 77 -59t105 -23q112 0 185 89q94 115 94 309q0 114 -37 203z" />
    <glyph glyph-name="questiondown" unicode="&#xbf;" horiz-adv-x="844" 
d="M466 971q49 0 83.5 -34.5t34.5 -82.5q0 -50 -34.5 -84.5t-84.5 -34.5q-48 0 -82.5 35t-34.5 84q0 48 34.5 82t83.5 35zM395 561h142v-23v-85q0 -133 -21.5 -184.5t-119.5 -152.5q-77 -79 -104.5 -126.5t-27.5 -101.5q0 -72 45 -113t123 -41q178 0 198 195h126
q-5 -144 -71 -222q-92 -109 -266 -109q-138 0 -218 67q-96 80 -96 222q0 80 35 141.5t139 165.5q80 80 98.5 124.5t18.5 162.5q0 38 -1 80z" />
    <glyph glyph-name="exclamdown" unicode="&#xa1;" horiz-adv-x="510" 
d="M333 -392h-156l24 956h116zM255 971q48 0 82.5 -34.5t34.5 -82.5q0 -50 -34.5 -84.5t-84.5 -34.5q-48 0 -82.5 35t-34.5 83q0 49 34.5 83t84.5 35z" />
    <glyph glyph-name="logicalnot" unicode="&#xac;" 
d="M812 0v413h-744v134h887v-547h-143z" />
    <glyph glyph-name="radical" unicode="&#x221a;" horiz-adv-x="1365" 
d="M1365 1698v-134h-403l-447 -1564h-175l-171 615h-169v134h286l77 -268q9 -31 54 -251l6 -32h11q8 38 41 177l50 216l90 314l224 793h526z" />
    <glyph glyph-name="florin" unicode="&#x192;" horiz-adv-x="1092" 
d="M717 969h210v-120h-231l-122 -692q-44 -247 -83 -319q-71 -127 -223 -127q-105 0 -234 68l26 132q108 -70 196 -70q76 0 106 56.5t68 271.5l119 681h-192v119h213l25 140q32 181 81 251q74 105 209 105q83 0 174 -42l-22 -126q-97 42 -149 42q-61 0 -93 -55t-59 -207z
" />
    <glyph glyph-name="approxequal" unicode="&#x2248;" 
d="M105 713l-85 55q35 74 75 127q81 106 204 106q77 0 230 -72q90 -43 126.5 -55t72.5 -12q59 0 100 31t88 112l88 -51q-55 -110 -110 -158q-82 -71 -182 -71q-45 0 -97.5 18.5t-189.5 81.5q-84 39 -137 39q-54 0 -96 -35t-87 -116zM105 374l-85 55q34 72 75 127
q81 106 204 106q77 0 230 -72q89 -41 126 -53.5t74 -12.5q58 0 98.5 30.5t88.5 111.5l88 -51q-54 -108 -111 -157q-81 -71 -182 -71q-44 0 -96.5 18.5t-189.5 80.5q-84 39 -137 39q-54 0 -96 -35t-87 -116z" />
    <glyph glyph-name="Delta" unicode="&#x2206;" horiz-adv-x="1365" 
d="M57 0l546 1365h154l551 -1365h-1251zM263 134h836l-418 1057z" />
    <glyph glyph-name="guillemotleft" unicode="&#xab;" horiz-adv-x="781" 
d="M642 0h-106l-184 478l184 493h106l-158 -493zM377 0h-106l-184 478l184 493h106l-158 -493z" />
    <glyph glyph-name="guillemotright" unicode="&#xbb;" horiz-adv-x="780" 
d="M138 971h105l185 -478l-185 -493h-105l157 493zM403 971h105l185 -478l-185 -493h-105l157 493z" />
    <glyph glyph-name="ellipsis" unicode="&#x2026;" horiz-adv-x="1418" 
d="M262 215q48 0 82.5 -35t34.5 -83q0 -49 -34.5 -83.5t-83.5 -34.5t-83.5 34.5t-34.5 82.5q0 50 34.5 84.5t84.5 34.5zM710 215q48 0 82.5 -35t34.5 -83q0 -49 -34.5 -83.5t-83.5 -34.5t-83.5 34.5t-34.5 82.5q0 50 34.5 84.5t84.5 34.5zM1157 215q48 0 82.5 -35t34.5 -83
q0 -49 -35 -83.5t-83 -34.5q-49 0 -83.5 34.5t-34.5 82.5q0 50 34.5 84.5t84.5 34.5z" />
    <glyph glyph-name="glyph172" horiz-adv-x="1092" 
 />
    <glyph glyph-name="Agrave" unicode="&#xc0;" horiz-adv-x="1158" 
d="M512 1374h134l471 -1374h-159l-122 362h-514l-122 -362h-158zM794 495l-215 679l-215 -679h430zM690 1497h-149l-340 280h205z" />
    <glyph glyph-name="Atilde" unicode="&#xc3;" horiz-adv-x="1158" 
d="M512 1374h134l471 -1374h-159l-122 362h-514l-122 -362h-158zM794 495l-215 679l-215 -679h430zM341 1519l-88 33q17 67 38 107q50 92 149 92q62 0 155 -53q63 -35 89 -46t51 -11q75 0 100 119l85 -33q-10 -66 -33 -108q-24 -44 -66 -70.5t-87 -26.5q-34 0 -66 12
t-105 52q-81 45 -122 45q-72 0 -100 -112z" />
    <glyph glyph-name="Otilde" unicode="&#xd5;" horiz-adv-x="1323" 
d="M662 1389q237 0 391 -182q165 -197 165 -524q0 -326 -165 -524q-153 -182 -390 -182q-241 0 -393 182q-165 199 -165 534q0 215 79 380q83 172 233 255q108 59 245 61zM662 1254q-180 0 -283 -152q-110 -162 -110 -412q0 -264 110 -427q103 -152 283 -152q112 0 201 67
q91 68 141 200.5t50 304.5q0 260 -110 419q-104 149 -282 152zM422 1519l-88 33q17 67 38 107q50 92 149 92q62 0 155 -53q63 -35 89 -46t51 -11q75 0 100 119l85 -33q-10 -66 -33 -108q-24 -44 -66 -70.5t-87 -26.5q-34 0 -66 12t-105 52q-81 45 -122 45q-72 0 -100 -112z
" />
    <glyph glyph-name="OE" unicode="&#x152;" horiz-adv-x="1904" 
d="M1059 1193v172h743v-133h-592v-458h549v-133h-548v-508h604v-133h-756v174q-63 -79 -114 -116q-114 -81 -277 -81q-243 0 -396 179q-167 195 -167 525q0 347 185 547q149 161 379 161q126 0 217.5 -46t172.5 -150zM669 1254q-152 0 -247 -101q-153 -164 -153 -472
q0 -304 150 -467q94 -103 245 -103q153 0 245 100q148 161 148 472t-152 472q-89 95 -236 99z" />
    <glyph glyph-name="oe" unicode="&#x153;" horiz-adv-x="1687" 
d="M1593 454h-662q5 -148 55 -231q77 -126 229 -126q167 0 229 151l133 -17q-90 -256 -361 -256q-239 0 -360 214q-67 -113 -147 -163.5t-192 -50.5q-180 0 -300 138q-125 144 -125 373q0 255 145 398q116 114 283 114q227 0 338 -220q124 220 343 220q215 0 321 -192
q73 -131 73 -292q0 -17 -2 -60zM1439 564q-5 126 -55 208q-65 105 -190 105q-107 0 -174 -80.5t-87 -232.5h506zM518 875q-122 0 -198 -103q-80 -108 -80 -287q0 -176 79 -285q75 -102 196 -102q120 0 190 101q78 111 78 288q0 178 -78 286q-71 98 -187 102z" />
    <glyph glyph-name="endash" unicode="&#x2013;" 
d="M143 572h738v-112h-738v112z" />
    <glyph glyph-name="emdash" unicode="&#x2014;" horiz-adv-x="1178" 
d="M0 572h1178v-112h-1178v112z" />
    <glyph glyph-name="quotedblleft" unicode="&#x201c;" horiz-adv-x="776" 
d="M578 1389h125q-131 -132 -144 -240q10 1 15 1q44 0 75 -31.5t31 -76.5q0 -48 -35 -81.5t-85 -33.5q-57 0 -92 41.5t-35 108.5q0 140 145 312zM260 1389h125q-132 -131 -145 -240q10 1 15 1q44 0 75 -31.5t31 -76.5q0 -48 -35 -81.5t-84 -33.5q-57 0 -92 41.5t-35 108.5
q0 139 145 312z" />
    <glyph glyph-name="quotedblright" unicode="&#x201d;" horiz-adv-x="796" 
d="M197 927h-125q61 61 98 121.5t47 117.5h-16q-43 0 -74 31.5t-31 76.5q0 48 34.5 81.5t84.5 33.5q57 0 92 -41.5t35 -108.5q0 -142 -145 -312zM536 927h-125q62 62 98.5 121.5t46.5 117.5h-16q-43 0 -74 31.5t-31 76.5q0 48 34.5 81.5t84.5 33.5q57 0 92 -41.5t35 -108.5
q0 -143 -145 -312z" />
    <glyph glyph-name="quoteleft" unicode="&#x2018;" horiz-adv-x="457" 
d="M260 1389h125q-132 -131 -145 -240q10 1 15 1q44 0 75 -31.5t31 -76.5q0 -48 -35 -81.5t-84 -33.5q-57 0 -92 41.5t-35 108.5q0 139 145 312z" />
    <glyph glyph-name="quoteright" unicode="&#x2019;" horiz-adv-x="466" 
d="M206 927h-125q61 61 98 121.5t47 117.5h-15q-44 0 -75 31.5t-31 76.5q0 48 34.5 81.5t84.5 33.5q57 0 92 -41.5t35 -108.5q0 -144 -145 -312z" />
    <glyph glyph-name="divide" unicode="&#xf7;" horiz-adv-x="1092" 
d="M547 497q40 0 69 -29.5t29 -69.5q0 -41 -29 -70t-70 -29t-70 29t-29 70t29 70t71 29zM547 1067q40 0 69 -29t29 -70t-29 -70t-70 -29t-70 29t-29 69q0 42 29 71t71 29zM109 742h875v-110h-875v110z" />
    <glyph glyph-name="lozenge" unicode="&#x25ca;" horiz-adv-x="1365" 
d="M683 1419l531 -736l-531 -736l-532 736zM683 1238l-404 -555l404 -554l403 554z" />
    <glyph glyph-name="ydieresis" unicode="&#xff;" horiz-adv-x="896" 
d="M33 971h153l264 -809l273 809h150l-320 -902q-68 -194 -96 -253t-75 -110q-107 -114 -283 -114q-16 0 -44 1v126q134 -3 197 50q33 27 57.5 73t60.5 149zM279 1376q44 0 75 -31.5t31 -76.5q0 -44 -31.5 -75.5t-75.5 -31.5q-45 0 -76.5 31.5t-31.5 75.5q0 45 31.5 76.5
t77.5 31.5zM628 1377q44 0 75.5 -32t31.5 -76q0 -45 -31.5 -76.5t-76.5 -31.5t-76.5 31.5t-31.5 76.5t32 76.5t77 31.5z" />
    <glyph glyph-name="Ydieresis" unicode="&#x178;" horiz-adv-x="1048" 
d="M24 1365h176l327 -638l323 638h175l-426 -792l2 -573h-153l2 573zM344 1753q47 0 80.5 -34t33.5 -82t-34 -82t-82 -34t-82 34t-34 82q0 49 34 82.5t84 33.5zM709 1753q47 0 80.5 -34t33.5 -82t-34 -82t-82 -34t-82 34t-34 82q0 49 34 82.5t84 33.5z" />
    <glyph glyph-name="fraction" unicode="&#x2215;" horiz-adv-x="168" 
d="M410 1331h125l-779 -1331h-124z" />
    <glyph glyph-name="currency" unicode="&#xa4;" horiz-adv-x="1365" 
d="M114 252l191 194q-104 127 -104 290q0 151 104 290l-196 194l84 84l194 -194q137 101 296 101t292 -100l195 192l83 -83l-194 -192q105 -132 105 -291q0 -161 -103 -291l195 -194l-83 -84l-194 194q-134 -101 -294 -101q-152 0 -295 101l-194 -194zM687 1082
q-147 0 -249 -102q-100 -101 -100 -244t101 -244q102 -102 243 -102q142 0 245 103q100 100 100 243q0 146 -100 244t-240 102z" />
    <glyph glyph-name="guilsinglleft" unicode="&#x2039;" horiz-adv-x="493" 
d="M369 0h-115l-184 478l184 493h115l-157 -493z" />
    <glyph glyph-name="guilsinglright" unicode="&#x203a;" horiz-adv-x="493" 
d="M124 971h115l184 -478l-184 -493h-115l157 493z" />
    <glyph glyph-name="fi" unicode="&#xf001;" horiz-adv-x="1033" 
d="M317 971h241v-116h-236v-855h-151v855h-137v116h137v62q0 105 8 154.5t30 88.5q31 55 89.5 86t128.5 31q71 0 157 -30v-132q-78 36 -136 36q-89 0 -117 -79q-14 -40 -14 -151v-66zM733 971h151v-971h-151v971zM810 1384q45 0 74 -30t29 -76q0 -44 -29.5 -73.5
t-74.5 -29.5q-46 0 -75.5 29t-29.5 73q0 46 30 76.5t76 30.5z" />
    <glyph glyph-name="fl" unicode="&#xf002;" horiz-adv-x="1034" 
d="M317 971h241v-116h-236v-855h-151v855h-137v116h137v62q0 105 8 154.5t30 88.5q31 55 89.5 86t128.5 31q71 0 157 -30v-132q-78 36 -136 36q-89 0 -117 -79q-14 -40 -14 -151v-66zM733 1372h151v-1372h-151v1372z" />
    <glyph glyph-name="daggerdbl" unicode="&#x2021;" 
d="M445 1331h135v-229h368v-121h-368v-863h368v-121h-368v-269h-135v269h-369v121h369v863h-369v121h369v229z" />
    <glyph glyph-name="periodcentered" unicode="&#x2219;" horiz-adv-x="523" 
d="M262 631q48 0 82.5 -35t34.5 -83q0 -49 -34.5 -83.5t-83.5 -34.5t-83.5 34.5t-34.5 83.5t34.5 83.5t84.5 34.5z" />
    <glyph glyph-name="quotesinglbase" unicode="&#x201a;" horiz-adv-x="466" 
d="M206 -240h-125q62 61 98.5 121.5t46.5 117.5q-11 -1 -16 -1q-44 0 -74.5 31.5t-30.5 76.5q0 48 34.5 81.5t84.5 33.5q57 0 92 -41.5t35 -108.5q0 -143 -145 -311z" />
    <glyph glyph-name="quotedblbase" unicode="&#x201e;" horiz-adv-x="796" 
d="M197 -240h-125q61 60 98 120.5t47 118.5q-11 -1 -15 -1q-44 0 -75 31t-31 76q0 49 34.5 82.5t84.5 33.5q57 0 92 -41.5t35 -108.5q0 -141 -145 -311zM536 -240h-125q62 61 98.5 121t46.5 118q-10 -1 -15 -1q-44 0 -75 31.5t-31 76.5q0 48 35 81.5t84 33.5q57 0 92 -41.5
t35 -108.5q0 -141 -145 -311z" />
    <glyph glyph-name="perthousand" unicode="&#x2030;" horiz-adv-x="1774" 
d="M924 1365h127l-802 -1365h-127zM867 645q108 0 182 -94q75 -94 75 -234q0 -156 -89 -251q-72 -77 -170 -77q-110 0 -184 93q-75 95 -75 235q0 155 89 251q72 77 172 77zM866 542q-62 0 -102.5 -63t-40.5 -162q0 -98 40 -161.5t102 -63.5t102 63.5t40 161.5
q0 97 -39.5 160t-101.5 65zM1469 645q108 0 182 -94q75 -94 75 -234q0 -156 -89 -251q-72 -77 -170 -77q-110 0 -184 93q-75 95 -75 235q0 156 89 251q72 77 172 77zM1469 542q-64 0 -104 -63t-40 -162q0 -98 40 -161.5t102 -63.5t102 63.5t40 161.5q0 97 -39.5 160
t-100.5 65zM310 1376q108 0 182 -94q75 -94 75 -234q0 -155 -89 -251q-72 -77 -170 -77q-110 0 -184 93q-75 95 -75 235q0 155 89 251q72 77 172 77zM309 1273q-62 0 -102.5 -63t-40.5 -162q0 -98 40 -161.5t102 -63.5t102 63.5t40 161.5q0 97 -39.5 160t-101.5 65z" />
    <glyph glyph-name="Acircumflex" unicode="&#xc2;" horiz-adv-x="1158" 
d="M512 1374h134l471 -1374h-159l-122 362h-514l-122 -362h-158zM794 495l-215 679l-215 -679h430zM231 1503l266 269h164l266 -269h-141l-207 181l-206 -181h-142z" />
    <glyph glyph-name="Ecircumflex" unicode="&#xca;" horiz-adv-x="1027" 
d="M329 774h554v-133h-554v-508h610v-133h-763v1365h751v-133h-598v-458zM210 1503l266 269h164l266 -269h-141l-207 181l-206 -181h-142z" />
    <glyph glyph-name="Aacute" unicode="&#xc1;" horiz-adv-x="1158" 
d="M512 1374h134l471 -1374h-159l-122 362h-514l-122 -362h-158zM794 495l-215 679l-215 -679h430zM469 1497l283 280h205l-340 -280h-148z" />
    <glyph glyph-name="Edieresis" unicode="&#xcb;" horiz-adv-x="1027" 
d="M329 774h554v-133h-554v-508h610v-133h-763v1365h751v-133h-598v-458zM377 1753q47 0 80.5 -34t33.5 -82t-34 -82t-82 -34t-82 34t-34 82q0 49 34 82.5t84 33.5zM742 1753q47 0 80.5 -34t33.5 -82t-34 -82t-82 -34t-82 34t-34 82q0 49 34 82.5t84 33.5z" />
    <glyph glyph-name="Egrave" unicode="&#xc8;" horiz-adv-x="1028" 
d="M318 774h554v-133h-554v-508h610v-133h-763v1365h751v-133h-598v-458zM683 1497h-149l-340 280h205z" />
    <glyph glyph-name="Iacute" unicode="&#xcd;" horiz-adv-x="504" 
d="M331 0h-157v1365h157v-1365zM146 1497l229 280h191l-286 -280h-134z" />
    <glyph glyph-name="Icircumflex" unicode="&#xce;" horiz-adv-x="504" 
d="M331 0h-157v1365h157v-1365zM-48 1503l218 269h165l218 -269h-135l-166 181l-165 -181h-135z" />
    <glyph glyph-name="Idieresis" unicode="&#xcf;" horiz-adv-x="504" 
d="M330 0h-157v1365h157v-1365zM106 1750q46 0 79 -33.5t33 -79.5q0 -47 -33 -80t-80 -33t-80 33t-33 80q0 48 33 80.5t81 32.5zM400 1749q46 0 78.5 -33t32.5 -80q0 -46 -33 -79t-79 -33q-47 0 -80 33t-33 79q0 48 33 80.5t81 32.5z" />
    <glyph glyph-name="Igrave" unicode="&#xcc;" horiz-adv-x="504" 
d="M330 0h-157v1365h157v-1365zM358 1497h-134l-286 280h192z" />
    <glyph glyph-name="Oacute" unicode="&#xd3;" horiz-adv-x="1323" 
d="M662 1389q237 0 391 -182q165 -197 165 -524q0 -326 -165 -524q-153 -182 -390 -182q-241 0 -393 182q-165 199 -165 534q0 215 79 380q83 172 233 255q108 59 245 61zM662 1254q-180 0 -283 -152q-110 -162 -110 -412q0 -264 110 -427q103 -152 283 -152q112 0 201 67
q91 68 141 200.5t50 304.5q0 260 -110 419q-104 149 -282 152zM506 1497l283 280h205l-340 -280h-148z" />
    <glyph glyph-name="Ocircumflex" unicode="&#xd4;" horiz-adv-x="1323" 
d="M662 1389q237 0 391 -182q165 -197 165 -524q0 -326 -165 -524q-153 -182 -390 -182q-241 0 -393 182q-165 199 -165 534q0 215 79 380q83 172 233 255q108 59 245 61zM662 1254q-180 0 -283 -152q-110 -162 -110 -412q0 -264 110 -427q103 -152 283 -152q112 0 201 67
q91 68 141 200.5t50 304.5q0 260 -110 419q-104 149 -282 152zM313 1503l266 269h164l266 -269h-141l-207 181l-206 -181h-142z" />
    <glyph glyph-name="apple" horiz-adv-x="1365" 
d="M984 1416v-21q0 -161 -127 -265q-48 -39 -86 -54t-91 -15q3 146 84.5 241.5t219.5 113.5zM1277 935q-65 -50 -98 -92q-67 -84 -67 -192q0 -103 54 -184t149 -122q-66 -161 -139 -256q-110 -143 -208 -143q-30 0 -50.5 6.5t-114.5 45.5q-16 7 -78 7q-52 0 -75 -5.5
t-107 -39.5q-42 -17 -79 -17q-55 0 -114 43.5t-112 123.5q-73 108 -118 231q-54 149 -54 288q0 183 100 314q103 134 283 134q66 0 158 -36q68 -26 97 -26q35 0 89 21q80 30 111.5 37.5t76.5 7.5q189 0 296 -146z" />
    <glyph glyph-name="Ograve" unicode="&#xd2;" horiz-adv-x="1323" 
d="M662 1389q237 0 391 -182q165 -197 165 -524q0 -326 -165 -524q-153 -182 -390 -182q-241 0 -393 182q-165 199 -165 534q0 215 79 380q83 172 233 255q108 59 245 61zM662 1254q-180 0 -283 -152q-110 -162 -110 -412q0 -264 110 -427q103 -152 283 -152q112 0 201 67
q91 68 141 200.5t50 304.5q0 260 -110 419q-104 149 -282 152zM807 1497h-149l-340 280h205z" />
    <glyph glyph-name="Uacute" unicode="&#xda;" horiz-adv-x="1280" 
d="M157 1365h153v-803q0 -152 8 -211t35 -105q37 -63 113.5 -98.5t173.5 -35.5q119 0 206 53q103 64 118 217q5 50 5 180v803h153v-806q0 -163 -5.5 -218t-27.5 -110q-49 -121 -172 -190q-113 -64 -277 -64q-242 0 -375 138q-87 91 -101 225q-7 59 -7 219v806zM491 1497
l283 280h205l-340 -280h-148z" />
    <glyph glyph-name="Ucircumflex" unicode="&#xdb;" horiz-adv-x="1280" 
d="M157 1365h153v-803q0 -152 8 -211t35 -105q37 -63 113.5 -98.5t173.5 -35.5q119 0 206 53q103 64 118 217q5 50 5 180v803h153v-806q0 -163 -5.5 -218t-27.5 -110q-49 -121 -172 -190q-113 -64 -277 -64q-242 0 -375 138q-87 91 -101 225q-7 59 -7 219v806zM292 1503
l266 269h164l266 -269h-141l-207 181l-206 -181h-142z" />
    <glyph glyph-name="Ugrave" unicode="&#xd9;" horiz-adv-x="1280" 
d="M157 1365h153v-803q0 -152 8 -211t35 -105q37 -63 113.5 -98.5t173.5 -35.5q119 0 206 53q103 64 118 217q5 50 5 180v803h153v-806q0 -163 -5.5 -218t-27.5 -110q-49 -121 -172 -190q-113 -64 -277 -64q-242 0 -375 138q-87 91 -101 225q-7 59 -7 219v806zM784 1497
h-149l-340 280h205z" />
    <glyph glyph-name="dotlessi" unicode="&#x131;" horiz-adv-x="452" 
d="M150 971h151v-971h-151v971z" />
    <glyph glyph-name="circumflex" unicode="&#x2c6;" 
d="M198 1126l232 287h164l232 -287h-139l-175 193l-175 -193h-139z" />
    <glyph glyph-name="tilde" unicode="&#x2dc;" 
d="M289 1145l-83 19q41 213 174 213q57 0 138 -53q88 -58 125 -58q67 0 91 119l83 -20q-11 -89 -48 -146q-47 -74 -121 -74q-58 0 -149 58q-86 54 -120 54q-65 0 -90 -112z" />
    <glyph glyph-name="macron" unicode="&#xaf;" 
d="M233 1320h559v-109h-559v109z" />
    <glyph glyph-name="breve" unicode="&#x2d8;" 
d="M260 1396h85q19 -75 63.5 -117t105.5 -42q123 0 165 159h85q-8 -80 -38 -139q-68 -137 -210 -137q-104 0 -173.5 75.5t-82.5 200.5z" />
    <glyph glyph-name="dotaccent" unicode="&#x2d9;" 
d="M513 1377q44 0 75.5 -32t31.5 -76q0 -45 -31.5 -76.5t-76.5 -31.5t-76.5 31.5t-31.5 76.5t31.5 76.5t77.5 31.5z" />
    <glyph glyph-name="ring" unicode="&#x2da;" 
d="M514 1469q76 0 132 -55q55 -55 55 -133t-55.5 -133.5t-133.5 -55.5t-133 55q-56 56 -56 133q0 79 55.5 134t135.5 55zM513 1381q-43 0 -72.5 -29t-29.5 -71t29.5 -71.5t71.5 -29.5t71.5 29.5t29.5 71.5q0 41 -28.5 70t-71.5 30z" />
    <glyph glyph-name="cedilla" unicode="&#xb8;" 
d="M467 0h98l-54 -114q175 -24 175 -154q0 -75 -54.5 -122.5t-140.5 -47.5q-70 0 -153 35v78q14 -4 28 -9q49 -15 82 -15q50 0 79.5 25.5t29.5 69.5q0 50 -38.5 72.5t-126.5 22.5z" />
    <glyph glyph-name="hungarumlaut" unicode="&#x2dd;" 
d="M335 1119l184 280h171l-237 -280h-118zM584 1119l183 280h171l-236 -280h-118z" />
    <glyph glyph-name="ogonek" unicode="&#x2db;" 
d="M627 0h148q-195 -84 -195 -180q0 -41 30.5 -66t80.5 -25q41 0 83 15v-91q-59 -21 -121 -21q-101 0 -157 61q-44 48 -44 111q0 133 175 196z" />
    <glyph glyph-name="caron" unicode="&#x2c7;" 
d="M826 1413l-232 -287h-164l-232 287h139l175 -193l175 193h139z" />
    <glyph glyph-name="glyph226" horiz-adv-x="512" 
 />
    <glyph glyph-name="glyph227" horiz-adv-x="512" 
 />
    <glyph glyph-name="glyph228" horiz-adv-x="512" 
 />
    <glyph glyph-name="glyph229" horiz-adv-x="512" 
 />
    <glyph glyph-name="glyph230" horiz-adv-x="512" 
 />
    <glyph glyph-name="glyph231" horiz-adv-x="512" 
 />
    <glyph glyph-name="glyph232" horiz-adv-x="512" 
 />
    <glyph glyph-name="glyph233" horiz-adv-x="512" 
 />
    <glyph glyph-name="glyph234" horiz-adv-x="512" 
 />
    <glyph glyph-name="glyph235" horiz-adv-x="512" 
 />
    <glyph glyph-name="glyph236" horiz-adv-x="512" 
 />
    <glyph glyph-name="glyph237" horiz-adv-x="512" 
 />
    <glyph glyph-name="glyph238" horiz-adv-x="512" 
 />
    <glyph glyph-name="glyph239" horiz-adv-x="512" 
 />
    <glyph glyph-name="glyph240" horiz-adv-x="512" 
 />
    <glyph glyph-name="glyph241" horiz-adv-x="512" 
 />
    <glyph glyph-name="glyph242" horiz-adv-x="512" 
 />
    <glyph glyph-name="glyph243" horiz-adv-x="512" 
 />
    <glyph glyph-name="glyph244" horiz-adv-x="512" 
 />
    <glyph glyph-name="glyph245" horiz-adv-x="512" 
 />
    <glyph glyph-name="glyph246" horiz-adv-x="512" 
 />
    <glyph glyph-name="glyph247" horiz-adv-x="512" 
 />
    <glyph glyph-name="glyph248" horiz-adv-x="512" 
 />
    <glyph glyph-name="glyph249" horiz-adv-x="512" 
 />
    <glyph glyph-name="glyph250" horiz-adv-x="512" 
 />
    <glyph glyph-name="glyph251" horiz-adv-x="512" 
 />
    <glyph glyph-name="glyph252" horiz-adv-x="512" 
 />
    <glyph glyph-name="glyph253" horiz-adv-x="512" 
 />
    <glyph glyph-name="glyph254" horiz-adv-x="512" 
 />
    <glyph glyph-name="glyph255" horiz-adv-x="512" 
 />
    <glyph glyph-name="glyph256" horiz-adv-x="512" 
 />
    <glyph glyph-name="glyph257" horiz-adv-x="512" 
 />
    <glyph glyph-name="brokenbar" unicode="&#xa6;" 
d="M440 1365h143v-680h-143v680zM440 314h143v-655h-143v655z" />
    <glyph glyph-name="twosuperior" unicode="&#xb2;" horiz-adv-x="718" 
d="M221 1090h-99q1 111 49 170q68 83 204 83q106 0 171 -54.5t65 -143.5q0 -72 -59 -157q-18 -26 -194 -240l-84 -102l-17 -21h366v-93h-506v79l25 30l79 96q210 257 245 307.5t35 99.5q0 48 -36 77.5t-95 29.5q-139 0 -149 -161z" />
    <glyph glyph-name="threesuperior" unicode="&#xb3;" horiz-adv-x="718" 
d="M212 1120h-98q6 101 57 155q68 71 190 71q120 0 185 -66q54 -54 54 -136q0 -118 -114 -173q140 -54 140 -199q0 -110 -75 -178t-197 -68q-131 0 -200.5 64.5t-67.5 183.5h98q3 -156 166 -156q78 0 122.5 40.5t44.5 111.5q0 148 -189 148q-17 0 -41 -3v94q27 -2 40 -2
q77 0 120 35t43 96q0 54 -36 85t-98 31q-127 0 -144 -134z" />
    <glyph glyph-name="middot" unicode="&#xb7;" horiz-adv-x="523" 
d="M262 631q48 0 82.5 -35t34.5 -83q0 -49 -34.5 -83.5t-83.5 -34.5t-83.5 34.5t-34.5 83.5t34.5 83.5t84.5 34.5z" />
    <glyph glyph-name="onesuperior" unicode="&#xb9;" horiz-adv-x="718" 
d="M163 1144v71q85 3 123.5 29.5t55.5 92.5h77v-805h-106v612h-150z" />
    <glyph glyph-name="onequarter" unicode="&#xbc;" horiz-adv-x="1690" 
d="M163 1144v71q85 3 124 29.5t54 92.5h78v-805h-106v612h-150zM1171 1331h125l-780 -1331h-123zM1480 280h146v-90h-144v-197h-109v197h-342v77l342 538h107v-525zM1378 280v378l-236 -378h236z" />
    <glyph glyph-name="onehalf" unicode="&#xbd;" horiz-adv-x="1690" 
d="M163 1144v71q85 3 123.5 29.5t55.5 92.5h77v-805h-106v612h-150zM1171 1331h125l-780 -1331h-123zM1192 558h-99q2 112 50 170q68 83 202 83q97 0 162 -47q75 -54 75 -151q0 -72 -59 -157q-17 -25 -193 -240l-84 -102l-17 -21h365v-93h-505v79l25 30l79 96l91 112
q136 168 162 209t26 86q0 48 -36 77.5t-95 29.5q-138 0 -149 -161z" />
    <glyph glyph-name="threequarters" unicode="&#xbe;" horiz-adv-x="1690" 
d="M212 1120h-98q6 101 57 155q69 71 190 71q120 0 185 -66q54 -54 54 -136q0 -118 -114 -173q140 -54 140 -199q0 -110 -75 -178t-197 -68q-131 0 -200.5 64.5t-67.5 183.5h98q3 -156 166 -156q78 0 122.5 40.5t44.5 111.5q0 148 -189 148q-17 0 -41 -3v94q27 -2 40 -2
q77 0 120 35t43 96q0 54 -36 85t-98 31q-127 0 -144 -134zM1173 1331h125l-779 -1331h-124zM1482 280h146v-90h-144v-197h-108v197h-343v77l343 538h106v-525zM1380 280v378l-236 -378h236z" />
    <glyph glyph-name="Eth" unicode="&#xd0;" horiz-adv-x="1283" 
d="M175 1365h214q176 0 273 -13q247 -33 385 -229q130 -185 130 -439q0 -280 -146 -465q-144 -182 -382 -208q-94 -11 -277 -11h-197v650h-119v128h119v587zM328 133h100q162 0 231.5 13t140.5 56q103 63 159 188t56 294q0 246 -120 395q-97 120 -257 143q-74 10 -248 10
h-62v-454h324v-128h-324v-517z" />
    <glyph glyph-name="multiply" unicode="&#xd7;" horiz-adv-x="1092" 
d="M624 687l293 -293l-77 -78l-293 293l-295 -294l-77 77l295 294l-293 293l77 78l293 -293l293 293l77 -78z" />
    <glyph glyph-name="Yacute" unicode="&#xdd;" horiz-adv-x="1048" 
d="M24 1365h176l327 -638l323 638h175l-426 -792l2 -573h-153l2 573zM381 1497l283 280h205l-340 -280h-148z" />
    <glyph glyph-name="Thorn" unicode="&#xde;" horiz-adv-x="1077" 
d="M176 1365h153v-159h73q266 0 376 -37q121 -41 188 -154q54 -91 54 -217q0 -167 -93 -270q-69 -77 -170 -103.5t-328 -26.5h-100v-398h-153v1365zM329 531h97q174 0 254 19q178 41 178 247q0 89 -36.5 153t-103.5 90q-49 20 -110.5 26.5t-198.5 6.5h-80v-542z" />
    <glyph glyph-name="eth" unicode="&#xf0;" horiz-adv-x="1032" 
d="M531 1273l143 79l61 -76l-144 -81q95 -105 182 -225q93 -128 130 -232.5t37 -237.5q0 -257 -137 -405q-111 -120 -282 -120q-174 0 -291 121q-138 143 -138 390q0 245 134 390q108 118 272 118q39 0 60.5 -6.5t54.5 -28.5l-128 175l-139 -80l-62 78l151 86l-89 112l77 62
zM525 876q-114 0 -186 -79q-99 -110 -99 -311q0 -186 90 -299q72 -89 187 -89q114 0 183 88q92 116 92 299q0 198 -96 313q-63 75 -171 78z" />
    <glyph glyph-name="yacute" unicode="&#xfd;" horiz-adv-x="896" 
d="M33 971h153l264 -809l273 809h150l-320 -902q-68 -194 -96 -253t-75 -110q-107 -114 -283 -114q-16 0 -44 1v126q134 -3 197 50q33 27 57.5 73t60.5 149zM328 1120l212 280h205l-297 -280h-120z" />
    <glyph glyph-name="thorn" unicode="&#xfe;" horiz-adv-x="1040" 
d="M151 -403v1775h143v-544q52 91 115 130.5t156 39.5q140 0 232 -90q152 -149 152 -425q0 -263 -138 -409q-94 -99 -237 -99q-177 0 -280 159v-537h-143zM552 873q-111 0 -174 -84q-87 -116 -87 -305q0 -184 84 -293q70 -91 179 -91q105 0 163 77q84 111 84 303
q0 206 -94 322q-56 69 -155 71z" />
    <glyph glyph-name="Lslash" unicode="&#x141;" horiz-adv-x="973" 
d="M176 694v671h158v-585l339 252v-140l-339 -252v-507h584v-133h-742v553l-142 -109v141z" />
    <glyph glyph-name="lslash" unicode="&#x142;" horiz-adv-x="452" 
d="M150 762v610h151v-535l148 110v-129l-148 -110v-708h-151v633l-147 -107v129z" />
    <glyph glyph-name="Scaron" unicode="&#x160;" horiz-adv-x="1121" 
d="M967 1012h-149q-9 102 -62 161q-73 81 -203 81q-101 0 -168 -50q-82 -62 -82 -158q0 -88 82 -144q44 -29 243 -119q132 -60 196.5 -99t100.5 -82q82 -97 82 -236q0 -193 -149 -303q-118 -86 -297 -86q-247 0 -369 158q-78 102 -88 281h150q9 -133 70 -205q84 -99 243 -99
q122 0 202 66q80 65 80 169q0 100 -82 169q-51 42 -212 115q-212 94 -280 148q-126 99 -126 255q0 168 133 269q113 86 278 86q228 0 339 -155q61 -84 68 -222zM910 1772l-266 -269h-164l-266 269h142l206 -181l206 181h142z" />
    <glyph glyph-name="scaron" unicode="&#x161;" horiz-adv-x="897" 
d="M793 704h-139q-10 84 -48 122q-51 52 -150 52q-83 0 -134.5 -40.5t-51.5 -105.5q0 -60 43.5 -91.5t181.5 -72.5q115 -34 170 -59.5t86 -59.5q58 -65 58 -171q0 -132 -86 -214q-94 -89 -265 -89q-177 0 -272 84.5t-95 241.5h138q19 -206 226 -206q94 0 150 46.5t56 124.5
q0 74 -61 113q-37 23 -217 78q-147 45 -200 103q-59 65 -59 163q0 132 102 206q94 69 231 69q155 0 241.5 -76t94.5 -218zM780 1413l-232 -287h-164l-232 287h139l175 -193l175 193h139z" />
    <glyph glyph-name="Zcaron" unicode="&#x17d;" horiz-adv-x="1009" 
d="M107 1365h839v-106l-703 -1126h689v-133h-869v119l696 1114h-652v132zM875 1772l-266 -269h-164l-266 269h142l206 -181l206 181h142z" />
    <glyph glyph-name="zcaron" unicode="&#x17e;" horiz-adv-x="814" 
d="M88 971h684v-106l-558 -746h547v-119h-716v113l551 739h-508v119zM744 1413l-232 -287h-164l-232 287h139l175 -193l175 193h139z" />
    <glyph glyph-name="minus" unicode="&#x2212;" horiz-adv-x="1092" 
d="M109 742h874v-110h-874v110z" />
    <glyph glyph-name="glyph280" 
d="M371 1376q44 0 75 -31.5t31 -76.5q0 -44 -31.5 -75.5t-75.5 -31.5q-45 0 -76.5 31.5t-31.5 75.5q0 45 31.5 76.5t77.5 31.5zM655 1377q44 0 75.5 -32t31.5 -76q0 -45 -31.5 -76.5t-76.5 -31.5t-76.5 31.5t-31.5 76.5t32 76.5t77 31.5z" />
    <glyph glyph-name="glyph281" 
d="M621 1497h-149l-340 280h205z" />
    <glyph glyph-name="glyph282" 
d="M860 1772l-266 -269h-164l-266 269h142l206 -181l206 181h142z" />
    <glyph glyph-name="glyph283" 
d="M366 1750q46 0 79 -33.5t33 -79.5q0 -47 -33 -80t-80 -33t-80 33t-33 80q0 48 33 80.5t81 32.5zM660 1749q46 0 78.5 -33t32.5 -80q0 -46 -33 -79t-79 -33q-47 0 -80 33t-33 79q0 48 33 80.5t81 32.5z" />
    <glyph glyph-name="glyph284" 
d="M164 1503l266 269h164l266 -269h-141l-207 181l-206 -181h-142z" />
    <glyph glyph-name="glyph285" 
d="M331 1753q47 0 80.5 -34t33.5 -82t-34 -82t-82 -34t-82 34t-34 82q0 49 34 82.5t84 33.5zM696 1753q47 0 80.5 -34t33.5 -82t-34 -82t-82 -34t-82 34t-34 82q0 49 34 82.5t84 33.5z" />
    <glyph glyph-name="glyph286" 
d="M267 1519l-88 33q17 67 38 107q50 92 149 92q62 0 155 -53q63 -35 89 -46t51 -11q75 0 100 119l85 -33q-10 -66 -33 -108q-24 -44 -66 -70.5t-87 -26.5q-34 0 -66 12t-105 52q-81 45 -122 45q-72 0 -100 -112z" />
    <glyph glyph-name="glyph287" 
d="M419 1497l283 280h205l-340 -280h-148z" />
    <glyph glyph-name="glyph288" horiz-adv-x="512" 
 />
    </font>
</defs>
</svg>
