<?xml version="1.0" standalone="no"?>
<!DOCTYPE svg PUBLIC "-//W3C//DTD SVG 1.1//EN" "http://www.w3.org/Graphics/SVG/1.1/DTD/svg11.dtd" >
<svg xmlns="http://www.w3.org/2000/svg" xmlns:xlink="http://www.w3.org/1999/xlink" version="1.1">
<metadata>
Created by FontForge 20170910 at Thu Dec 16 17:10:27 1993
 By Jimmy Wärting
URW Software, Copyright 1993 by URW
</metadata>
<defs>
<font id="CorporateSSC-Demi" horiz-adv-x="1024" >
  <font-face 
    font-family="CorpoSSCDem"
    font-weight="400"
    font-stretch="normal"
    units-per-em="2048"
    panose-1="0 0 0 0 0 0 0 0 0 0"
    ascent="1638"
    descent="-410"
    x-height="1020"
    cap-height="1365"
    bbox="-356 -535 1912 1853"
    underline-thickness="183"
    underline-position="-298"
    unicode-range="U+0020-F002"
  />
<missing-glyph horiz-adv-x="512" 
d="M51 0v1365h410v-1365h-410zM410 51v1263h-308v-1263h308z" />
    <glyph glyph-name=".notdef" horiz-adv-x="512" 
d="M51 0v1365h410v-1365h-410zM410 51v1263h-308v-1263h308z" />
    <glyph glyph-name=".null" horiz-adv-x="0" 
 />
    <glyph glyph-name="nonmarkingreturn" horiz-adv-x="512" 
 />
    <glyph glyph-name="space" unicode=" " horiz-adv-x="512" 
 />
    <glyph glyph-name="space" unicode="&#xa0;" horiz-adv-x="512" 
 />
    <glyph glyph-name="exclam" unicode="!" horiz-adv-x="513" 
d="M148 1335h217l-27 -914h-169zM255 260q58 0 98.5 -41t40.5 -98t-41 -97.5t-98 -40.5t-97.5 40.5t-40.5 97.5t40.5 98t97.5 41z" />
    <glyph glyph-name="quotedbl" unicode="&#x22;" horiz-adv-x="882" 
d="M350 817h-130l-36 548h203zM662 817h-130l-36 548h203z" />
    <glyph glyph-name="numbersign" unicode="#" horiz-adv-x="1229" 
d="M1138 563l-23 -143h-238l-66 -420h-166l67 420h-275l-67 -420h-165l66 420h-234l23 143h234l42 266h-233l22 143h233l63 393h165l-62 -393h274l63 393h166l-62 -393h238l-23 -143h-238l-42 -266h238zM776 829h-275l-42 -266h275z" />
    <glyph glyph-name="dollar" unicode="$" horiz-adv-x="1133" 
d="M620 1207v-408l18 -6q206 -70 287 -136q127 -103 127 -284q0 -107 -55.5 -196.5t-153.5 -140.5t-223 -59v-167h-105v167q-213 19 -323 133t-110 315h200q10 -125 62.5 -186t170.5 -83v460l-24 9q-126 42 -185.5 71.5t-98.5 68.5q-93 92 -93 237q0 165 107.5 268.5
t293.5 118.5v145h105v-146q177 -19 280.5 -120t103.5 -254h-200q-13 84 -56.5 129.5t-127.5 63.5zM515 1208q-98 -17 -148 -63.5t-50 -120.5q0 -86 70 -134q33 -23 128 -56v374zM620 153q104 10 163.5 64.5t59.5 139.5q0 77 -44.5 126t-148.5 87l-30 10v-427z" />
    <glyph glyph-name="percent" unicode="%" horiz-adv-x="1326" 
d="M974 1365h173l-797 -1365h-172zM993 648q116 0 195.5 -95.5t79.5 -234.5q0 -138 -79.5 -233.5t-195.5 -95.5t-195.5 95.5t-79.5 233.5q0 139 79.5 234.5t195.5 95.5zM993 525q-60 0 -98 -57.5t-38 -148.5q0 -92 38 -149.5t98 -57.5t98 57.5t38 149.5q0 91 -38 148.5
t-98 57.5zM333 1376q115 0 194.5 -95.5t79.5 -234.5q0 -138 -79.5 -233.5t-194.5 -95.5q-116 0 -195.5 95.5t-79.5 233.5q0 139 79.5 234.5t195.5 95.5zM333 1253q-61 0 -98.5 -57.5t-37.5 -148.5q0 -92 38 -149.5t98 -57.5q59 0 97 57.5t38 149.5q0 91 -37.5 148.5
t-97.5 57.5z" />
    <glyph glyph-name="ampersand" unicode="&#x26;" horiz-adv-x="1200" 
d="M884 657h162l1 -59q0 -119 -23.5 -203.5t-76.5 -159.5l175 -235h-216l-73 108q-70 -67 -146.5 -96.5t-182.5 -29.5q-194 0 -313.5 107t-119.5 281q0 106 57 193t203 204l-25 33q-74 95 -98.5 149.5t-24.5 122.5q0 119 90 196t229 77q131 0 213 -75t82 -195
q0 -96 -46.5 -172t-163.5 -171l254 -346q25 48 34 97.5t9 136.5v37zM480 858q145 116 145 221q0 50 -35 81.5t-90 31.5t-93 -33.5t-38 -82.5q0 -42 18.5 -82t70.5 -108zM443 619q-101 -79 -141.5 -138t-40.5 -128q0 -89 68.5 -148t172.5 -59q140 0 226 94z" />
    <glyph glyph-name="quotesingle" unicode="'" horiz-adv-x="512" 
d="M321 817h-130l-36 548h203z" />
    <glyph glyph-name="parenleft" unicode="(" horiz-adv-x="602" 
d="M382 1377h153q-216 -331 -216 -894q0 -562 216 -893h-153q-248 335 -248 893q0 554 248 894z" />
    <glyph glyph-name="parenright" unicode=")" horiz-adv-x="604" 
d="M221 -410h-154q218 330 218 893q0 562 -218 894h154q249 -337 249 -894q0 -554 -249 -893z" />
    <glyph glyph-name="asterisk" unicode="*" 
d="M460 1084v247h105v-247l235 77l32 -100l-235 -76l145 -200l-84 -61l-145 200l-146 -200l-84 61l145 200l-235 76l33 100z" />
    <glyph glyph-name="plus" unicode="+" horiz-adv-x="1133" 
d="M645 761h385v-152h-385v-399h-158v399h-384v152h384v399h158v-399z" />
    <glyph glyph-name="comma" unicode="," horiz-adv-x="502" 
d="M187 -387h-130q155 191 174 390q-66 3 -102.5 36.5t-36.5 90.5q0 56 41.5 96.5t99.5 40.5q71 0 112 -51.5t41 -139.5q0 -103 -46 -209.5t-153 -253.5z" />
    <glyph glyph-name="hyphen" unicode="-" horiz-adv-x="547" 
d="M0 591h547v-150h-547v150z" />
    <glyph glyph-name="period" unicode="." horiz-adv-x="518" 
d="M258 260q58 0 98.5 -40.5t40.5 -98.5q0 -57 -41 -97.5t-98 -40.5t-97.5 40.5t-40.5 97.5t40.5 98t97.5 41z" />
    <glyph glyph-name="slash" unicode="/" horiz-adv-x="1153" 
d="M75 -354l836 1719h167l-835 -1719h-168z" />
    <glyph glyph-name="zero" unicode="0" horiz-adv-x="1011" 
d="M506 997q185 0 304.5 -144t119.5 -367t-119.5 -367t-304.5 -144t-304.5 144t-119.5 367t119.5 367t304.5 144zM506 824q-98 0 -157.5 -92.5t-59.5 -245.5t59.5 -245.5t157.5 -92.5t157.5 92.5t59.5 245.5t-59.5 245.5t-157.5 92.5z" />
    <glyph glyph-name="one" unicode="1" horiz-adv-x="522" 
d="M159 972h204v-972h-204v972z" />
    <glyph glyph-name="two" unicode="2" horiz-adv-x="823" 
d="M298 164h470v-164h-704v148l25 18q448 340 448 533q0 61 -40 98.5t-106 37.5q-152 0 -172 -195h-147q0 173 90.5 265t261.5 92q145 0 232.5 -81.5t87.5 -216.5q0 -82 -39 -154.5t-130 -160.5q-130 -125 -277 -220z" />
    <glyph glyph-name="three" unicode="3" horiz-adv-x="800" 
d="M243 368v146q131 0 204.5 48t73.5 135q0 61 -43 99.5t-112 38.5q-75 0 -117 -40t-56 -124h-146q0 152 91 239t251 87q149 0 235.5 -74t86.5 -201q0 -186 -203 -264q226 -60 226 -265q0 -140 -126 -292.5t-356 -290.5h-221q234 156 356.5 302.5t122.5 272.5
q0 184 -226 184l-27 -1h-14z" />
    <glyph glyph-name="four" unicode="4" horiz-adv-x="1056" 
d="M775 168h227v-168h-222v-390h-208v390h-510v170l496 797h217v-799zM579 168v562l-352 -562h352z" />
    <glyph glyph-name="five" unicode="5" horiz-adv-x="791" 
d="M729 972l-28 -176h-436l-38 -209q162 -12 266 -64q99 -49 152.5 -130.5t53.5 -182.5q0 -151 -108.5 -303.5t-318.5 -296.5h-226q226 153 332.5 288.5t106.5 268.5q0 81 -46.5 142t-132.5 92q-96 36 -258 36l92 535h589z" />
    <glyph glyph-name="six" unicode="6" horiz-adv-x="1036" 
d="M570 1351h225l-23 -26q-201 -235 -328 -442q56 21 121 21q172 0 281.5 -126t109.5 -325q0 -215 -120 -346.5t-317 -131.5q-187 0 -312 136t-125 340q0 196 105.5 394t360.5 481zM519 742q-102 0 -165.5 -82.5t-63.5 -213.5q0 -128 65 -212t164 -84q104 0 166.5 80.5
t62.5 215.5q0 132 -63.5 214t-165.5 82z" />
    <glyph glyph-name="seven" unicode="7" horiz-adv-x="963" 
d="M79 972h863v-162l-641 -1176h-230l648 1144h-640v194z" />
    <glyph glyph-name="eight" unicode="8" horiz-adv-x="1033" 
d="M269 701q-158 97 -158 275q0 165 116 274.5t290 109.5t290 -109.5t116 -274.5q0 -178 -158 -275q187 -103 187 -322q0 -173 -124 -288.5t-311 -115.5t-311 115t-124 289q0 219 187 322zM518 1194q-90 0 -145 -57.5t-55 -150.5t55 -150.5t145 -57.5q89 0 144 57.5
t55 150.5t-55 150.5t-144 57.5zM517 613q-101 0 -164.5 -66.5t-63.5 -171.5q0 -102 64 -168t164 -66t164 66t64 168q0 105 -63.5 171.5t-164.5 66.5z" />
    <glyph glyph-name="nine" unicode="9" horiz-adv-x="1036" 
d="M465 -390h-224l22 27q202 237 330 449q-54 -22 -120 -22q-170 0 -280.5 127.5t-110.5 323.5q0 207 124.5 344.5t312.5 137.5q200 0 318.5 -130t118.5 -349q0 -198 -106.5 -399t-361.5 -484zM525 822q-103 0 -169 -83.5t-66 -214.5q0 -133 63.5 -215.5t165.5 -82.5
q103 0 166 82.5t63 215.5q0 134 -61.5 216t-161.5 82z" />
    <glyph glyph-name="colon" unicode=":" horiz-adv-x="518" 
d="M258 260q58 0 98.5 -40.5t40.5 -98.5q0 -57 -41 -97.5t-98 -40.5t-97.5 40.5t-40.5 97.5t40.5 98t97.5 41zM258 973q58 0 98.5 -40.5t40.5 -98.5q0 -57 -41 -97.5t-98 -40.5t-97.5 40.5t-40.5 97.5t40.5 98t97.5 41z" />
    <glyph glyph-name="semicolon" unicode=";" horiz-adv-x="502" 
d="M234 973q58 0 98.5 -40.5t40.5 -98.5q0 -57 -40.5 -97.5t-98.5 -40.5q-57 0 -97.5 40.5t-40.5 97.5q0 58 40.5 98.5t97.5 40.5zM187 -387h-130q155 191 174 390q-66 3 -102.5 36.5t-36.5 90.5q0 56 41.5 96.5t99.5 40.5q71 0 112 -51.5t41 -139.5q0 -103 -46 -209.5
t-153 -253.5z" />
    <glyph glyph-name="less" unicode="&#x3c;" 
d="M955 1211v-200l-673 -319l673 -318v-199l-887 432v172z" />
    <glyph glyph-name="equal" unicode="=" horiz-adv-x="1133" 
d="M103 916h927v-154h-927v154zM103 607h927v-154h-927v154z" />
    <glyph glyph-name="greater" unicode="&#x3e;" 
d="M69 174v201l673 317l-673 319v199l887 -432v-172z" />
    <glyph glyph-name="question" unicode="?" horiz-adv-x="849" 
d="M413 260q58 0 98.5 -40.5t40.5 -98.5q0 -57 -41 -97.5t-98 -40.5t-97.5 40.5t-40.5 97.5t40.5 98t97.5 41zM509 417h-190v23q0 181 19 236.5t116 157.5q76 80 99.5 120.5t23.5 91.5q0 59 -39 93.5t-106 34.5q-153 0 -166 -179h-165q0 171 94 265t264 94q154 0 243.5 -80
t89.5 -217q0 -85 -32 -144.5t-137 -169.5q-78 -81 -96.5 -123.5t-18.5 -138.5z" />
    <glyph glyph-name="at" unicode="@" horiz-adv-x="1502" 
d="M994 1011h143l-80 -414q-13 -68 -13 -97q0 -38 17.5 -62.5t45.5 -24.5q75 0 137.5 114.5t62.5 251.5q0 219 -143 351.5t-380 132.5q-249 0 -412 -167.5t-163 -422.5q0 -221 126 -377q157 -194 472 -194q211 0 397 80l35 -128q-194 -80 -431 -80q-372 0 -572 230
q-170 195 -170 480q0 127 45 249t127 217q99 115 239.5 177.5t300.5 62.5q312 0 496 -191q163 -169 163 -414q0 -194 -102 -342.5t-236 -148.5q-60 0 -100.5 35.5t-54.5 100.5q-93 -139 -248 -139q-131 0 -214 92.5t-83 238.5q0 90 36.5 176t99.5 145q97 91 229 91
q145 0 209 -129zM783 890q-92 0 -156 -77.5t-64 -189.5q0 -91 44 -143t121 -52q88 0 145.5 80.5t57.5 204.5q0 80 -40.5 128.5t-107.5 48.5z" />
    <glyph glyph-name="A" unicode="A" horiz-adv-x="1198" 
d="M495 1369h205l467 -1369h-219l-101 320h-497l-103 -320h-217zM791 502l-193 614l-193 -614h386z" />
    <glyph glyph-name="B" unicode="B" horiz-adv-x="1168" 
d="M169 1365h312q142 0 218 -9.5t132 -33.5q89 -39 138 -117t49 -181q0 -115 -54 -186t-171 -107q298 -70 298 -343q0 -117 -57.5 -209t-156.5 -134q-65 -27 -149 -36t-276 -9h-283v1365zM377 798h120q165 0 230 39q82 48 82 162q0 116 -89 162q-59 30 -234 30h-109v-393z
M377 174h127q124 0 183 8t96 29q90 52 90 191q0 140 -110 193q-68 33 -256 33h-130v-454z" />
    <glyph glyph-name="C" unicode="C" horiz-adv-x="1230" 
d="M1139 952h-187q-49 254 -282 254q-166 0 -263 -141.5t-97 -383.5q0 -241 98 -381.5t266 -140.5q262 0 293 328h192q-14 -249 -137 -380.5t-341 -131.5q-271 0 -432 191.5t-161 512.5q0 200 62 353t181 245q147 113 335 113q209 0 331.5 -113t141.5 -325z" />
    <glyph glyph-name="D" unicode="D" horiz-adv-x="1304" 
d="M169 1365h277q192 0 299.5 -21t190.5 -76q131 -85 205 -240t74 -342q0 -191 -71.5 -345.5t-198.5 -239.5q-91 -61 -194.5 -81t-333.5 -20h-248v1365zM380 182h110q145 0 217 17t133 66q76 60 116.5 170.5t40.5 257.5q0 136 -45 245.5t-126 168.5q-65 49 -137 63t-250 14
h-59v-1002z" />
    <glyph glyph-name="E" unicode="E" horiz-adv-x="1066" 
d="M380 798h548v-182h-548v-434h615v-182h-826v1365h808v-181h-597v-386z" />
    <glyph glyph-name="F" unicode="F" horiz-adv-x="1031" 
d="M380 798h548v-182h-548v-616h-211v1365h808v-181h-597v-386z" />
    <glyph glyph-name="G" unicode="G" horiz-adv-x="1295" 
d="M721 692h456v-565q-216 -152 -478 -152q-285 0 -448 190t-163 522q0 318 161.5 510.5t429.5 192.5q228 0 361 -140q101 -106 118 -295h-187q-46 251 -289 251q-174 0 -273 -138.5t-99 -381.5q0 -248 101 -387.5t281 -139.5q164 0 305 89v278h-276v166z" />
    <glyph glyph-name="H" unicode="H" horiz-adv-x="1350" 
d="M380 800h589v565h211v-1365h-211v625h-589v-625h-211v1365h211v-565z" />
    <glyph glyph-name="I" unicode="I" horiz-adv-x="550" 
d="M381 0h-213v1365h213v-1365z" />
    <glyph glyph-name="J" unicode="J" horiz-adv-x="641" 
d="M264 1365h213v-1089q0 -184 -10.5 -250t-47.5 -120q-95 -137 -362 -137l-63 2v178q97 0 145.5 10t79.5 38q30 27 37.5 72t7.5 205v1091z" />
    <glyph glyph-name="K" unicode="K" horiz-adv-x="1214" 
d="M909 1365h247l-532 -639l575 -726h-276l-540 720zM169 1365h211v-1365h-211v1365z" />
    <glyph glyph-name="L" unicode="L" horiz-adv-x="1016" 
d="M169 1365h217v-1183h589v-182h-806v1365z" />
    <glyph glyph-name="M" unicode="M" horiz-adv-x="1619" 
d="M169 1365h303l337 -1137l339 1137h301v-1365h-194v1133l-339 -1133h-216l-337 1133v-1133h-194v1365z" />
    <glyph glyph-name="N" unicode="N" horiz-adv-x="1368" 
d="M169 1365h227l602 -1043v1043h200v-1365h-218l-610 1041v-1041h-201v1365z" />
    <glyph glyph-name="O" unicode="O" horiz-adv-x="1353" 
d="M676 1390q216 0 372 -139q106 -94 161.5 -240t55.5 -329q0 -375 -217 -568q-155 -139 -372 -139q-216 0 -371 139q-217 193 -217 568q0 183 55.5 329t161.5 240q155 139 371 139zM676 1208q-168 0 -267 -142t-99 -383q0 -242 99 -384t267 -142q169 0 268 142t99 384
t-99 383.5t-268 141.5z" />
    <glyph glyph-name="P" unicode="P" horiz-adv-x="1119" 
d="M169 1365h275q167 0 257.5 -11t155.5 -39q102 -45 160 -143.5t58 -227.5q0 -127 -56.5 -223t-156.5 -141q-60 -27 -146.5 -37.5t-244.5 -10.5h-91v-532h-211v1365zM380 714h90h68q160 0 227 42q92 58 92 188q0 145 -100 200q-42 23 -103.5 31.5t-185.5 8.5h-88v-470z" />
    <glyph glyph-name="Q" unicode="Q" horiz-adv-x="1384" 
d="M1186 298l275 -306h-248l-136 150q-162 -167 -401 -167q-263 0 -425.5 195.5t-162.5 512.5q0 316 162.5 511.5t426.5 195.5q263 0 425.5 -195.5t162.5 -511.5q0 -205 -79 -385zM676 1208q-166 0 -266 -143t-100 -383q0 -239 99.5 -382t266.5 -143t267 143t100 382
q0 240 -100 383t-267 143z" />
    <glyph glyph-name="R" unicode="R" horiz-adv-x="1181" 
d="M169 1365h294q181 0 271 -14.5t160 -54.5q86 -49 133 -137.5t47 -200.5q0 -267 -260 -372l336 -586h-249l-311 550h-210v-550h-211v1365zM380 732h95q117 0 170 6t94 25q117 54 117 196q0 129 -94 184q-43 26 -98.5 33.5t-199.5 7.5h-84v-452z" />
    <glyph glyph-name="S" unicode="S" horiz-adv-x="1140" 
d="M1009 987h-204q-9 104 -72.5 161.5t-170.5 57.5q-95 0 -158.5 -50.5t-63.5 -125.5q0 -66 62 -112q39 -29 246 -117q148 -62 210.5 -97t101.5 -78q88 -96 88 -245q0 -184 -127 -295t-338 -111q-235 0 -362 119t-138 348h205q12 -140 86.5 -211.5t209.5 -71.5
q108 0 177.5 52.5t69.5 133.5t-73 139q-32 24 -73 45t-167 74q-209 90 -281 156q-109 102 -109 252q0 166 123.5 272.5t316.5 106.5q227 0 351 -145q81 -94 90 -258z" />
    <glyph glyph-name="T" unicode="T" horiz-adv-x="992" 
d="M33 1365h927v-181h-359v-1184h-211v1184h-357v181z" />
    <glyph glyph-name="U" unicode="U" horiz-adv-x="1334" 
d="M153 1365h211v-793q0 -121 6 -173t26 -95q32 -69 103 -107t168 -38q96 0 167 38t103 107q20 43 26 94.5t6 173.5v793h211v-796q0 -165 -11 -235.5t-48 -134.5q-60 -107 -179 -165.5t-275 -58.5q-157 0 -276 59t-180 165q-36 64 -47 134t-11 236v796z" />
    <glyph glyph-name="V" unicode="V" horiz-adv-x="1202" 
d="M21 1365h226l356 -1123l354 1123h222l-472 -1369h-218z" />
    <glyph glyph-name="W" unicode="W" horiz-adv-x="1691" 
d="M27 1365h199l262 -1111l268 1111h182l268 -1111l265 1111h194l-339 -1369h-236l-246 972l-243 -972h-235z" />
    <glyph glyph-name="X" unicode="X" horiz-adv-x="1157" 
d="M60 1365h242l279 -470l282 470h242l-402 -653l425 -712h-241l-306 519l-311 -519h-240l427 712z" />
    <glyph glyph-name="Y" unicode="Y" horiz-adv-x="1103" 
d="M11 1365h239l305 -588l301 588h236l-435 -811v-554h-210v554z" />
    <glyph glyph-name="Z" unicode="Z" horiz-adv-x="1018" 
d="M107 1365h860v-148l-664 -1035h647v-182h-896v165l657 1021h-604v179z" />
    <glyph glyph-name="bracketleft" unicode="[" horiz-adv-x="602" 
d="M169 1365h362v-161h-184v-1440h184v-162h-362v1763z" />
    <glyph glyph-name="backslash" unicode="\" horiz-adv-x="1153" 
d="M1078 -354h-168l-835 1719h167z" />
    <glyph glyph-name="bracketright" unicode="]" horiz-adv-x="602" 
d="M433 -398h-362v161h184v1440h-184v162h362v-1763z" />
    <glyph glyph-name="asciicircum" unicode="^" 
d="M246 720h-213l347 651h265l347 -651h-214l-266 491z" />
    <glyph glyph-name="underscore" unicode="_" 
d="M0 -116h1024v-183h-1024v183z" />
    <glyph glyph-name="grave" unicode="`" 
d="M670 1141h-157l-342 308h261z" />
    <glyph glyph-name="a" unicode="a" horiz-adv-x="1070" 
d="M420 1023h229l374 -1023h-222l-76 231h-381l-75 -231h-223zM393 388h284l-142 442z" />
    <glyph glyph-name="b" unicode="b" horiz-adv-x="1022" 
d="M140 1020h293q229 0 320 -40q144 -63 144 -227q0 -141 -130 -206q180 -71 180 -243q0 -96 -47.5 -166.5t-134.5 -103.5q-54 -21 -121.5 -27.5t-216.5 -6.5h-287v1020zM336 616h118q138 0 187 26t49 100q0 71 -66 96q-41 15 -171 15h-117v-237zM336 167h127q151 0 198 18
q77 29 77 122q0 97 -85 126q-47 16 -188 16h-129v-282z" />
    <glyph glyph-name="c" unicode="c" horiz-adv-x="1065" 
d="M969 688h-191q-45 185 -218 185q-123 0 -196.5 -98.5t-73.5 -262.5q0 -170 73 -267t199 -97q210 0 228 240h193q0 -185 -114.5 -297t-303.5 -112q-221 0 -352.5 144.5t-131.5 385.5q0 144 52.5 261t147.5 186q118 85 281 85q178 0 283 -91t124 -262z" />
    <glyph glyph-name="d" unicode="d" horiz-adv-x="1103" 
d="M140 1020h255q160 0 243 -15t153 -56q109 -64 170.5 -180t61.5 -257q0 -147 -59 -262.5t-167 -178.5q-72 -42 -160 -56.5t-271 -14.5h-226v1020zM344 167h85q110 0 168.5 12t101.5 44q115 86 115 282q0 208 -126 296q-47 34 -100.5 43t-197.5 9h-46v-686z" />
    <glyph glyph-name="e" unicode="e" horiz-adv-x="916" 
d="M344 611h422v-167h-422v-277h491v-167h-695v1020h672v-167h-468v-242z" />
    <glyph glyph-name="f" unicode="f" horiz-adv-x="890" 
d="M344 611h439v-167h-439v-444h-204v1020h681v-167h-477v-242z" />
    <glyph glyph-name="g" unicode="g" horiz-adv-x="1128" 
d="M610 520h387v-391q-165 -150 -415 -150q-232 0 -366.5 143.5t-134.5 390.5q0 142 53 259t147 184q120 85 293 85q201 0 315 -108q48 -45 71 -99.5t33 -144.5h-186q-26 97 -80 140.5t-151 43.5q-132 0 -209 -97t-77 -264q0 -176 80 -270.5t229 -94.5q131 0 228 75v151
h-217v147z" />
    <glyph glyph-name="h" unicode="h" horiz-adv-x="1119" 
d="M343 613h433v407h204v-1020h-204v446h-433v-446h-203v1020h203v-407z" />
    <glyph glyph-name="i" unicode="i" horiz-adv-x="489" 
d="M347 0h-205v1020h205v-1020z" />
    <glyph glyph-name="j" unicode="j" horiz-adv-x="563" 
d="M219 1020h205v-802q0 -139 -10 -190.5t-45 -94.5q-79 -98 -289 -98l-72 2v163h57q111 0 138 50q11 20 13.5 46.5t2.5 119.5v804z" />
    <glyph glyph-name="k" unicode="k" horiz-adv-x="1104" 
d="M783 1020h241l-440 -478l455 -542h-265l-426 537zM140 1020h204v-1020h-204v1020z" />
    <glyph glyph-name="l" unicode="l" horiz-adv-x="865" 
d="M140 1020h205v-853h473v-167h-678v1020z" />
    <glyph glyph-name="m" unicode="m" horiz-adv-x="1417" 
d="M140 1020h283l287 -793l285 793h282v-1020h-187v760l-286 -760h-192l-285 758v-758h-187v1020z" />
    <glyph glyph-name="n" unicode="n" horiz-adv-x="1149" 
d="M140 1020h206l463 -693v693h200v-1020h-200l-468 708v-708h-201v1020z" />
    <glyph glyph-name="o" unicode="o" horiz-adv-x="1158" 
d="M579 1041q221 0 359.5 -148t138.5 -383q0 -236 -138.5 -383.5t-359.5 -147.5t-359.5 147.5t-138.5 383.5q0 235 138.5 383t359.5 148zM578 873q-128 0 -208.5 -101t-80.5 -262t80.5 -262.5t208.5 -101.5q129 0 209.5 101t80.5 263q0 161 -80.5 262t-209.5 101z" />
    <glyph glyph-name="p" unicode="p" horiz-adv-x="975" 
d="M140 1020h268q250 0 336 -31q87 -31 136 -109t49 -186q0 -150 -86 -231t-247 -81l-97 -1l-70 -1h-85v-380h-204v1020zM344 547h84q165 0 209 15q83 28 83 135q0 99 -66 131q-52 25 -228 25h-82v-306z" />
    <glyph glyph-name="q" unicode="q" horiz-adv-x="1206" 
d="M1016 233l247 -252h-255l-102 112q-59 -54 -144.5 -84t-180.5 -30q-220 0 -360 148.5t-140 380.5q0 133 49 247t135 183q129 103 314 103q218 0 358 -148t140 -380q0 -158 -61 -280zM579 874q-130 0 -209.5 -100t-79.5 -264q0 -165 79 -264.5t210 -99.5q132 0 211 99.5
t79 264.5q0 166 -79 265t-211 99z" />
    <glyph glyph-name="r" unicode="r" horiz-adv-x="1048" 
d="M140 1020h294q141 0 215.5 -10.5t129.5 -38.5q71 -36 112 -107t41 -156q0 -212 -202 -285l263 -423h-233l-227 397h-190v-397h-203v1020zM343 564h101q152 0 202 21q77 32 77 125q0 82 -60 116q-30 17 -73.5 22t-154.5 5h-92v-289z" />
    <glyph glyph-name="s" unicode="s" horiz-adv-x="992" 
d="M875 734h-198q-21 140 -187 140q-78 0 -124 -31t-46 -83q0 -50 37 -74t193 -75q211 -68 274 -130q77 -76 77 -194q0 -142 -107 -225t-290 -83q-229 0 -339 118q-82 88 -82 251h200q5 -101 45 -143q56 -58 174 -58q92 0 142 34t50 97q0 59 -39.5 87t-199.5 81
q-194 64 -250 114q-88 78 -88 195q0 129 103.5 208t272.5 79q179 0 275.5 -78t106.5 -230z" />
    <glyph glyph-name="t" unicode="t" horiz-adv-x="852" 
d="M41 1020h771v-167h-288v-853h-204v853h-279v167z" />
    <glyph glyph-name="u" unicode="u" horiz-adv-x="1120" 
d="M134 1020h204v-590q0 -94 7 -138t27 -71q55 -73 187 -73q133 0 188 73q34 47 34 209v590h204v-592q0 -121 -10 -175t-41 -104q-51 -81 -148.5 -125.5t-226.5 -44.5q-128 0 -225.5 44.5t-148.5 125.5q-31 50 -41 103.5t-10 175.5v592z" />
    <glyph glyph-name="v" unicode="v" horiz-adv-x="1011" 
d="M23 1020h222l262 -802l262 802h220l-366 -1023h-234z" />
    <glyph glyph-name="w" unicode="w" horiz-adv-x="1449" 
d="M39 1020h199l198 -776l199 776h180l199 -776l197 776h198l-273 -1023h-226l-185 666l-185 -666h-228z" />
    <glyph glyph-name="x" unicode="x" horiz-adv-x="1008" 
d="M56 1020h238l210 -343l209 343h239l-323 -491l341 -529h-239l-227 376l-228 -376h-239l343 529z" />
    <glyph glyph-name="y" unicode="y" horiz-adv-x="941" 
d="M6 1020h238l227 -430l227 430h237l-363 -605v-415h-203v415z" />
    <glyph glyph-name="z" unicode="z" horiz-adv-x="841" 
d="M87 1020h673v-139l-474 -714h489v-167h-718v151l468 704h-438v165z" />
    <glyph glyph-name="braceleft" unicode="{" horiz-adv-x="602" 
d="M264 483q71 -46 95.5 -98.5t24.5 -159.5v-289q0 -109 19 -141q29 -47 149 -47h26v-155q-36 -2 -64 -2q-175 0 -241.5 69.5t-66.5 251.5v320q0 87 -26 129.5t-88 56.5v131q62 14 88 56.5t26 129.5v320q0 182 66.5 251.5t241.5 69.5l64 -2v-155h-26q-120 0 -149 -47
q-19 -32 -19 -141v-289q0 -107 -24.5 -160t-95.5 -99z" />
    <glyph glyph-name="bar" unicode="|" 
d="M411 1365h201v-1706h-201v1706z" />
    <glyph glyph-name="braceright" unicode="}" horiz-adv-x="602" 
d="M338 483q-71 47 -95.5 99.5t-24.5 159.5v289q0 109 -19 141q-28 47 -149 47h-26v155l63 2q107 0 168.5 -23.5t97.5 -78.5q43 -66 43 -219v-320q0 -87 26 -129.5t88 -56.5v-131q-62 -14 -88 -56.5t-26 -129.5v-320q0 -153 -43 -219q-36 -55 -97.5 -78.5t-168.5 -23.5
q-27 0 -63 2v156l26 -1q121 0 149 47q19 32 19 141v289q0 107 24.5 160t95.5 98z" />
    <glyph glyph-name="asciitilde" unicode="~" horiz-adv-x="1365" 
d="M302 1172l-114 74l14 31q60 125 123 176t157 51q74 0 222 -62q88 -38 121.5 -48t69.5 -10q52 0 88 27t78 97l117 -69q-65 -134 -130 -185q-82 -64 -175 -64q-69 0 -191 50l-106 44q-64 26 -108 26q-52 0 -88.5 -30.5t-77.5 -107.5z" />
    <glyph glyph-name="Adieresis" unicode="&#xc4;" horiz-adv-x="1198" 
d="M495 1369h205l467 -1369h-219l-101 320h-497l-103 -320h-217zM791 502l-193 614l-193 -614h386zM411 1774q56 0 95.5 -39.5t39.5 -95.5q0 -55 -39.5 -94.5t-95.5 -39.5q-55 0 -94.5 39.5t-39.5 94.5q0 56 39.5 95.5t94.5 39.5zM785 1774q56 0 95.5 -39.5t39.5 -95.5
q0 -55 -39.5 -94.5t-95.5 -39.5q-55 0 -94.5 39.5t-39.5 94.5q0 56 39.5 95.5t94.5 39.5z" />
    <glyph glyph-name="Aring" unicode="&#xc5;" horiz-adv-x="1198" 
d="M495 1369h205l467 -1369h-219l-101 320h-497l-103 -320h-217zM791 502l-193 614l-193 -614h386zM600 1853q81 0 138.5 -57.5t57.5 -139.5q0 -81 -57.5 -138.5t-138.5 -57.5q-82 0 -139.5 57.5t-57.5 138.5q0 82 57.5 139.5t139.5 57.5zM600 1757q-42 0 -71.5 -29.5
t-29.5 -71.5q0 -41 29.5 -70.5t71.5 -29.5q41 0 70.5 29.5t29.5 70.5q0 42 -29.5 71.5t-70.5 29.5z" />
    <glyph glyph-name="Ccedilla" unicode="&#xc7;" horiz-adv-x="1230" 
d="M693 -25l-33 -94q207 -33 207 -201q0 -93 -67 -154t-168 -61q-76 0 -183 55v101q90 -39 135 -39q55 0 88 32t33 85q0 55 -38.5 86.5t-105.5 31.5q-18 0 -56 -5l58 175q-116 18 -230 103q-245 183 -245 591q0 203 64.5 357.5t187.5 244.5q145 107 327 107q209 0 331 -113
t141 -325h-187q-49 254 -282 254q-166 0 -263 -141.5t-97 -384.5q0 -240 97.5 -380.5t265.5 -140.5q263 0 294 328h193q-16 -264 -151 -392q-128 -120 -316 -120z" />
    <glyph glyph-name="Eacute" unicode="&#xc9;" horiz-adv-x="1066" 
d="M380 798h548v-182h-548v-434h615v-182h-826v1365h808v-181h-597v-386zM394 1486l313 308h262l-381 -308h-194z" />
    <glyph glyph-name="Ntilde" unicode="&#xd1;" horiz-adv-x="1368" 
d="M169 1365h227l602 -1043v1043h200v-1365h-218l-610 1041v-1041h-201v1365zM455 1510l-103 31q56 209 202 209q55 0 147 -42q99 -45 136 -45q68 0 107 100l95 -30q-19 -100 -71.5 -158.5t-123.5 -58.5q-62 0 -153 39q-84 37 -101 42.5t-40 5.5q-34 0 -59.5 -25t-35.5 -68z
" />
    <glyph glyph-name="Odieresis" unicode="&#xd6;" horiz-adv-x="1353" 
d="M676 1390q216 0 372 -139q106 -94 161.5 -240t55.5 -329q0 -375 -217 -568q-155 -139 -372 -139q-216 0 -371 139q-217 193 -217 568q0 183 55.5 329t161.5 240q155 139 371 139zM676 1208q-168 0 -267 -142t-99 -383q0 -242 99 -384t267 -142q169 0 268 142t99 384
t-99 383.5t-268 141.5zM490 1774q55 0 94.5 -39.5t39.5 -95.5q0 -55 -39.5 -94.5t-94.5 -39.5q-56 0 -95.5 39.5t-39.5 94.5q0 56 39.5 95.5t95.5 39.5zM864 1774q56 0 95 -39t39 -96q0 -55 -39.5 -94.5t-94.5 -39.5q-56 0 -95.5 39.5t-39.5 94.5q0 56 39.5 95.5t95.5 39.5z
" />
    <glyph glyph-name="Udieresis" unicode="&#xdc;" horiz-adv-x="1334" 
d="M153 1365h211v-793q0 -121 6 -173t26 -95q32 -69 103 -107t168 -38q96 0 167 38t103 107q20 43 26 94.5t6 173.5v793h211v-796q0 -165 -11 -235.5t-48 -134.5q-60 -107 -179 -165.5t-275 -58.5q-157 0 -276 59t-180 165q-36 64 -47 134t-11 236v796zM479 1774
q57 0 96 -39t39 -96q0 -56 -39.5 -95t-95.5 -39q-55 0 -94.5 39.5t-39.5 94.5q0 56 39.5 95.5t94.5 39.5zM853 1774q56 0 95.5 -39.5t39.5 -95.5q0 -55 -39.5 -94.5t-95.5 -39.5q-55 0 -94.5 39.5t-39.5 94.5q0 56 39.5 95.5t94.5 39.5z" />
    <glyph glyph-name="aacute" unicode="&#xe1;" horiz-adv-x="1070" 
d="M420 1023h229l374 -1023h-222l-76 231h-381l-75 -231h-223zM393 388h284l-142 442zM407 1141l238 308h261l-342 -308h-157z" />
    <glyph glyph-name="agrave" unicode="&#xe0;" horiz-adv-x="1070" 
d="M420 1023h229l374 -1023h-222l-76 231h-381l-75 -231h-223zM393 388h284l-142 442zM663 1141h-157l-342 308h261z" />
    <glyph glyph-name="acircumflex" unicode="&#xe2;" horiz-adv-x="1070" 
d="M420 1023h229l374 -1023h-222l-76 231h-381l-75 -231h-223zM393 388h284l-142 442zM202 1149l240 300h185l240 -300h-185l-147 184l-146 -184h-187z" />
    <glyph glyph-name="adieresis" unicode="&#xe4;" horiz-adv-x="1070" 
d="M420 1023h229l374 -1023h-222l-76 231h-381l-75 -231h-223zM393 388h284l-142 442zM359 1426q51 0 87.5 -36.5t36.5 -87.5q0 -52 -36.5 -88.5t-87.5 -36.5q-52 0 -88.5 36.5t-36.5 88.5q0 51 36.5 87.5t88.5 36.5zM713 1426q51 0 87.5 -36.5t36.5 -87.5
q0 -52 -36.5 -88.5t-87.5 -36.5q-52 0 -88.5 36.5t-36.5 88.5q0 51 36.5 87.5t88.5 36.5z" />
    <glyph glyph-name="atilde" unicode="&#xe3;" horiz-adv-x="1070" 
d="M420 1023h229l374 -1023h-222l-76 231h-381l-75 -231h-223zM393 388h284l-142 442zM326 1171l-95 24q50 215 176 215q53 0 140 -42q92 -44 123 -44q60 0 96 100l89 -24q-17 -104 -64.5 -164t-111.5 -60q-48 0 -144 44t-123 44q-60 0 -86 -93z" />
    <glyph glyph-name="aring" unicode="&#xe5;" horiz-adv-x="1070" 
d="M420 1023h229l374 -1023h-222l-76 231h-381l-75 -231h-223zM393 388h284l-142 442zM535 1504q82 0 139.5 -57.5t57.5 -139.5q0 -81 -57.5 -138.5t-139.5 -57.5q-81 0 -138.5 57.5t-57.5 138.5q0 82 57.5 139.5t138.5 57.5zM535 1408q-41 0 -70.5 -29.5t-29.5 -70.5
q0 -42 29.5 -71.5t70.5 -29.5q42 0 71.5 29.5t29.5 71.5q0 41 -29.5 70.5t-71.5 29.5z" />
    <glyph glyph-name="ccedilla" unicode="&#xe7;" horiz-adv-x="1065" 
d="M576 -22l-27 -80q182 -32 182 -173q0 -84 -58.5 -137t-150.5 -53q-70 0 -161 48v89l23 -10q60 -24 99 -24q48 0 77 28t29 74q0 49 -34.5 77t-94.5 28q-15 0 -48 -3l53 145q-84 13 -168 65q-104 65 -160 183.5t-56 273.5q0 144 52.5 261t147.5 186q118 85 281 85
q178 0 283 -91t124 -262h-192q-44 185 -217 185q-123 0 -196.5 -98.5t-73.5 -262.5q0 -170 73 -267.5t199 -97.5q210 0 228 241h193q0 -160 -91 -270q-58 -70 -127 -101t-189 -39z" />
    <glyph glyph-name="eacute" unicode="&#xe9;" horiz-adv-x="917" 
d="M344 611h422v-167h-422v-277h491v-167h-695v1020h672v-167h-468v-242zM322 1141l238 308h261l-342 -308h-157z" />
    <glyph glyph-name="egrave" unicode="&#xe8;" horiz-adv-x="916" 
d="M344 611h422v-167h-422v-277h491v-167h-695v1020h672v-167h-468v-242zM639 1141h-157l-342 308h261z" />
    <glyph glyph-name="ecircumflex" unicode="&#xea;" horiz-adv-x="916" 
d="M344 611h422v-167h-422v-277h491v-167h-695v1020h672v-167h-468v-242zM141 1149l240 300h185l240 -300h-185l-147 184l-146 -184h-187z" />
    <glyph glyph-name="edieresis" unicode="&#xeb;" horiz-adv-x="916" 
d="M344 611h422v-167h-422v-277h491v-167h-695v1020h672v-167h-468v-242zM300 1426q51 0 87.5 -36.5t36.5 -87.5q0 -52 -36.5 -88.5t-87.5 -36.5q-52 0 -88.5 36.5t-36.5 88.5q0 51 36.5 87.5t88.5 36.5zM654 1426q51 0 87.5 -36.5t36.5 -87.5q0 -52 -36.5 -88.5
t-87.5 -36.5q-52 0 -88.5 36.5t-36.5 88.5q0 51 36.5 87.5t88.5 36.5z" />
    <glyph glyph-name="iacute" unicode="&#xed;" horiz-adv-x="488" 
d="M346 0h-205v1020h205v-1020zM131 1141l170 308h234l-254 -308h-150z" />
    <glyph glyph-name="igrave" unicode="&#xec;" horiz-adv-x="488" 
d="M347 0h-205v1020h205v-1020zM358 1141h-150l-254 308h234z" />
    <glyph glyph-name="icircumflex" unicode="&#xee;" horiz-adv-x="488" 
d="M348 0h-205v1020h205v-1020zM-48 1149l199 300h185l200 -300h-180l-112 184l-112 -184h-180z" />
    <glyph glyph-name="idieresis" unicode="&#xef;" horiz-adv-x="489" 
d="M347 0h-205v1020h205v-1020zM86 1426q51 0 87.5 -36.5t36.5 -87.5q0 -52 -36.5 -88.5t-87.5 -36.5q-52 0 -88.5 36.5t-36.5 88.5q0 51 36.5 87.5t88.5 36.5zM403 1426q51 0 87.5 -36.5t36.5 -87.5q0 -52 -36.5 -88.5t-87.5 -36.5q-52 0 -88.5 36.5t-36.5 88.5
q0 51 36.5 87.5t88.5 36.5z" />
    <glyph glyph-name="ntilde" unicode="&#xf1;" horiz-adv-x="1149" 
d="M140 1020h206l463 -693v693h200v-1020h-200l-468 708v-708h-201v1020zM372 1171l-95 24q50 215 176 215q53 0 140 -42q92 -44 123 -44q60 0 96 100l89 -24q-17 -104 -64.5 -164t-111.5 -60q-48 0 -144 44t-123 44q-60 0 -86 -93z" />
    <glyph glyph-name="oacute" unicode="&#xf3;" horiz-adv-x="1158" 
d="M579 1041q221 0 359.5 -148t138.5 -383q0 -236 -138.5 -383.5t-359.5 -147.5t-359.5 147.5t-138.5 383.5q0 235 138.5 383t359.5 148zM578 873q-128 0 -208.5 -101t-80.5 -262t80.5 -262.5t208.5 -101.5q129 0 209.5 101t80.5 263q0 161 -80.5 262t-209.5 101zM427 1141
l238 308h261l-342 -308h-157z" />
    <glyph glyph-name="ograve" unicode="&#xf2;" horiz-adv-x="1158" 
d="M579 1041q221 0 359.5 -148t138.5 -383q0 -236 -138.5 -383.5t-359.5 -147.5t-359.5 147.5t-138.5 383.5q0 235 138.5 383t359.5 148zM578 873q-128 0 -208.5 -101t-80.5 -262t80.5 -262.5t208.5 -101.5q129 0 209.5 101t80.5 263q0 161 -80.5 262t-209.5 101zM737 1141
h-157l-342 308h261z" />
    <glyph glyph-name="ocircumflex" unicode="&#xf4;" horiz-adv-x="1158" 
d="M579 1041q221 0 359.5 -148t138.5 -383q0 -236 -138.5 -383.5t-359.5 -147.5t-359.5 147.5t-138.5 383.5q0 235 138.5 383t359.5 148zM578 873q-128 0 -208.5 -101t-80.5 -262t80.5 -262.5t208.5 -101.5q129 0 209.5 101t80.5 263q0 161 -80.5 262t-209.5 101zM246 1149
l240 300h185l240 -300h-185l-147 184l-146 -184h-187z" />
    <glyph glyph-name="odieresis" unicode="&#xf6;" horiz-adv-x="1158" 
d="M579 1041q221 0 359.5 -148t138.5 -383q0 -236 -138.5 -383.5t-359.5 -147.5t-359.5 147.5t-138.5 383.5q0 235 138.5 383t359.5 148zM578 873q-128 0 -208.5 -101t-80.5 -262t80.5 -262.5t208.5 -101.5q129 0 209.5 101t80.5 263q0 161 -80.5 262t-209.5 101zM402 1426
q51 0 87.5 -36.5t36.5 -87.5q0 -52 -36.5 -88.5t-87.5 -36.5q-52 0 -88.5 36.5t-36.5 88.5q0 51 36.5 87.5t88.5 36.5zM756 1426q51 0 87.5 -36.5t36.5 -87.5q0 -52 -36.5 -88.5t-87.5 -36.5q-52 0 -88.5 36.5t-36.5 88.5q0 51 36.5 87.5t88.5 36.5z" />
    <glyph glyph-name="otilde" unicode="&#xf5;" horiz-adv-x="1158" 
d="M579 1041q221 0 359.5 -148t138.5 -383q0 -236 -138.5 -383.5t-359.5 -147.5t-359.5 147.5t-138.5 383.5q0 235 138.5 383t359.5 148zM578 873q-128 0 -208.5 -101t-80.5 -262t80.5 -262.5t208.5 -101.5q129 0 209.5 101t80.5 263q0 161 -80.5 262t-209.5 101zM377 1171
l-95 24q50 215 176 215q53 0 140 -42q92 -44 123 -44q60 0 96 100l89 -24q-17 -104 -64.5 -164t-111.5 -60q-48 0 -144 44t-123 44q-60 0 -86 -93z" />
    <glyph glyph-name="uacute" unicode="&#xfa;" horiz-adv-x="1120" 
d="M134 1020h204v-590q0 -94 7 -138t27 -71q55 -73 187 -73q133 0 188 73q34 47 34 209v590h204v-592q0 -121 -10 -175t-41 -104q-51 -81 -148.5 -125.5t-226.5 -44.5q-128 0 -225.5 44.5t-148.5 125.5q-31 50 -41 103.5t-10 175.5v592zM401 1141l238 308h261l-342 -308
h-157z" />
    <glyph glyph-name="ugrave" unicode="&#xf9;" horiz-adv-x="1120" 
d="M134 1020h204v-590q0 -94 7 -138t27 -71q55 -73 187 -73q133 0 188 73q34 47 34 209v590h204v-592q0 -121 -10 -175t-41 -104q-51 -81 -148.5 -125.5t-226.5 -44.5q-128 0 -225.5 44.5t-148.5 125.5q-31 50 -41 103.5t-10 175.5v592zM718 1141h-157l-342 308h261z" />
    <glyph glyph-name="ucircumflex" unicode="&#xfb;" horiz-adv-x="1120" 
d="M134 1020h204v-590q0 -94 7 -138t27 -71q55 -73 187 -73q133 0 188 73q34 47 34 209v590h204v-592q0 -121 -10 -175t-41 -104q-51 -81 -148.5 -125.5t-226.5 -44.5q-128 0 -225.5 44.5t-148.5 125.5q-31 50 -41 103.5t-10 175.5v592zM227 1149l240 300h185l240 -300h-185
l-147 184l-146 -184h-187z" />
    <glyph glyph-name="udieresis" unicode="&#xfc;" horiz-adv-x="1120" 
d="M134 1020h204v-590q0 -94 7 -138t27 -71q55 -73 187 -73q133 0 188 73q34 47 34 209v590h204v-592q0 -121 -10 -175t-41 -104q-51 -81 -148.5 -125.5t-226.5 -44.5q-128 0 -225.5 44.5t-148.5 125.5q-31 50 -41 103.5t-10 175.5v592zM384 1426q51 0 87.5 -36.5
t36.5 -87.5q0 -52 -36.5 -88.5t-87.5 -36.5q-52 0 -88.5 36.5t-36.5 88.5q0 51 36.5 87.5t88.5 36.5zM738 1426q51 0 87.5 -36.5t36.5 -87.5q0 -52 -36.5 -88.5t-87.5 -36.5q-52 0 -88.5 36.5t-36.5 88.5q0 51 36.5 87.5t88.5 36.5z" />
    <glyph glyph-name="dagger" unicode="&#x2020;" 
d="M417 1331h193v-370h322v-159h-322v-1072h-193v1072h-326v159h326v370z" />
    <glyph glyph-name="degree" unicode="&#xb0;" 
d="M512 1390q125 0 213.5 -86t88.5 -208q0 -124 -88.5 -211t-213.5 -87t-213.5 87t-88.5 211q0 121 88.5 207.5t213.5 86.5zM512 1267q-73 0 -124.5 -50.5t-51.5 -121.5q0 -72 51.5 -123t124.5 -51t124.5 51t51.5 123q0 71 -51.5 121.5t-124.5 50.5z" />
    <glyph glyph-name="cent" unicode="&#xa2;" horiz-adv-x="1133" 
d="M634 1043v-680q69 19 104 64.5t45 130.5h197q-7 -139 -94 -239q-92 -105 -252 -123v-197h-106v199q-179 30 -277.5 161t-98.5 339q0 211 100.5 346.5t279.5 164.5v172h105v-171q298 -32 339 -342h-203q-11 79 -41.5 117.5t-97.5 57.5zM532 1038q-85 -34 -130 -122.5
t-45 -220.5t45.5 -217.5t129.5 -112.5v673z" />
    <glyph glyph-name="sterling" unicode="&#xa3;" horiz-adv-x="1133" 
d="M517 782h312v-152h-341q-43 -295 -142 -467q108 28 208 28q44 0 135 -4q54 -3 72 -3q49 0 71.5 13t34.5 47q17 51 17 108h168l1 -28q0 -137 -55 -226q-34 -56 -90.5 -81.5t-148.5 -25.5q-35 0 -71 3l-129 10q-84 6 -154 6q-151 0 -324 -23q74 103 124 288q49 182 73 354
h-179v153h208l3 17l22 120q48 260 132.5 363.5t250.5 103.5t246 -99q56 -69 67 -222h-180q-8 78 -38.5 112t-93.5 34q-76 0 -115 -68.5t-67 -249.5l-13 -81q-1 -7 -4 -30z" />
    <glyph glyph-name="section" unicode="&#xa7;" 
d="M879 995h-165q-13 104 -60 152t-135 48q-79 0 -127.5 -38.5t-48.5 -101.5q0 -56 36 -88t192 -115q193 -103 250 -151q93 -78 93 -196q0 -169 -178 -271q73 -55 104.5 -114t31.5 -139q0 -150 -99.5 -234.5t-275.5 -84.5q-192 0 -293.5 96.5t-101.5 277.5h170
q15 -113 67 -162t156 -49q89 0 139.5 42t50.5 115q0 57 -41 97.5t-168 107.5l-119 63q-130 70 -191 144t-61 163q0 155 180 265q-71 57 -99.5 108.5t-28.5 122.5q0 133 101.5 219t257.5 86q167 0 265 -98t98 -265zM423 738q-134 -75 -134 -170q0 -53 36 -90.5t146 -97.5
l101 -55q3 -2 27 -14q133 78 133 174q0 70 -75 120q-83 57 -234 133z" />
    <glyph glyph-name="bullet" unicode="&#x2022;" horiz-adv-x="1365" 
d="M687 978q116 0 199 -83.5t83 -200.5t-83 -200.5t-199 -83.5q-119 0 -202.5 83t-83.5 201t83.5 201t202.5 83z" />
    <glyph glyph-name="paragraph" unicode="&#xb6;" horiz-adv-x="1271" 
d="M447 -195v846l-32 -1q-125 0 -223 65q-68 45 -105.5 120.5t-37.5 166.5q0 93 38 169.5t107 122.5q107 71 328 71h602v-158h-136v-1402h-174v1402h-193v-1402h-174z" />
    <glyph glyph-name="germandbls" unicode="&#xdf;" horiz-adv-x="1984" 
d="M875 734h-198q-21 140 -187 140q-78 0 -124 -31t-46 -83q0 -50 37 -74t193 -75q211 -68 274 -130q77 -76 77 -194q0 -142 -107 -225t-290 -83q-229 0 -339 118q-82 88 -82 251h200q5 -101 45 -143q56 -58 174 -58q92 0 142 34t50 97q0 59 -39.5 87t-199.5 81
q-194 64 -250 114q-88 78 -88 195q0 129 103.5 208t272.5 79q179 0 275.5 -78t106.5 -230zM1867 734h-198q-21 140 -187 140q-78 0 -124 -31t-46 -83q0 -50 37 -74t193 -75q211 -69 274 -130q77 -76 77 -194q0 -142 -107 -225t-290 -83q-229 0 -339 118q-82 88 -82 251h200
q5 -101 45 -143q56 -58 174 -58q92 0 142 34t50 97q0 59 -39.5 87t-199.5 81q-194 64 -250 114q-88 78 -88 195q0 129 103.5 208t272.5 79q179 0 275.5 -78t106.5 -230z" />
    <glyph glyph-name="registered" unicode="&#xae;" horiz-adv-x="1572" 
d="M523 1089h189q113 0 170.5 -8.5t101.5 -33.5q115 -62 115 -205q0 -156 -160 -223l212 -349h-169l-193 325h-123v-325h-143v819zM666 714h54q120 0 162 18q70 30 70 111q0 72 -56 103q-26 15 -60 19.5t-123 4.5h-47v-256zM787 1391q154 0 295 -65t242 -183
q170 -198 170 -460q0 -154 -65 -295.5t-183 -241.5q-199 -170 -459 -170q-156 0 -297 65t-241 183q-170 199 -170 459q0 126 44.5 247t124.5 213q102 118 243 183t296 65zM787 1299q-222 0 -391 -146q-100 -87 -156.5 -211t-56.5 -258q0 -136 56 -259.5t157 -211.5
q169 -146 391 -146q250 0 426.5 180.5t176.5 436.5q0 135 -56 258.5t-157 210.5q-171 146 -390 146z" />
    <glyph glyph-name="copyright" unicode="&#xa9;" horiz-adv-x="1572" 
d="M1119 848h-128q-31 150 -176 150q-101 0 -161.5 -83t-60.5 -222q0 -138 61 -220.5t162 -82.5q169 0 182 194h131q0 -142 -86 -228t-229 -86q-132 0 -230 79q-140 113 -140 342q0 192 102 309.5t270 117.5q134 0 213.5 -71t89.5 -199zM787 1391q154 0 295 -65t243 -183
q169 -198 169 -460q0 -155 -65 -296t-183 -241q-199 -170 -459 -170q-156 0 -297 65t-241 183q-170 199 -170 459q0 126 44.5 247t124.5 213q102 118 243 183t296 65zM787 1291q-247 0 -421.5 -178t-174.5 -429q0 -134 55.5 -256t154.5 -209q167 -144 386 -144
q247 0 421.5 178t174.5 431q0 134 -55 255t-156 208q-168 144 -385 144z" />
    <glyph glyph-name="trademark" unicode="&#x2122;" horiz-adv-x="1650" 
d="M15 1365h589v-119h-223v-700h-143v700h-223v119zM702 1365h199l233 -660l234 660h198v-819h-132v642l-228 -642h-145l-227 642v-642h-132v819z" />
    <glyph glyph-name="acute" unicode="&#xb4;" 
d="M354 1141l238 308h261l-342 -308h-157z" />
    <glyph glyph-name="dieresis" unicode="&#xa8;" 
d="M336 1426q51 0 87.5 -36.5t36.5 -87.5q0 -52 -36.5 -88.5t-87.5 -36.5q-52 0 -88.5 36.5t-36.5 88.5q0 51 36.5 87.5t88.5 36.5zM690 1426q51 0 87.5 -36.5t36.5 -87.5q0 -52 -36.5 -88.5t-87.5 -36.5q-52 0 -88.5 36.5t-36.5 88.5q0 51 36.5 87.5t88.5 36.5z" />
    <glyph glyph-name="notequal" unicode="&#x2260;" 
d="M547 956l112 226l132 -62l-81 -164h246v-180h-328l-81 -167h409v-180h-492l-106 -217l-132 61l75 156h-233v180h316l81 167h-397v180h479z" />
    <glyph glyph-name="AE" unicode="&#xc6;" horiz-adv-x="1815" 
d="M832 1365h901v-181h-584v-388h533v-182h-533v-432h595v-182h-810v320h-488l-183 -320h-231zM934 502v673l-382 -673h382z" />
    <glyph glyph-name="Oslash" unicode="&#xd8;" horiz-adv-x="1353" 
d="M1030 1268l84 111h164l-157 -206q144 -189 144 -494q0 -191 -68 -349t-189 -248q-144 -107 -329 -107q-202 0 -359 126l-85 -115h-160l153 210q-76 111 -108 223t-32 264q0 430 279 615q138 92 308 92q196 0 355 -122zM906 1114q-97 93 -230 93q-168 0 -267 -144
t-99 -389q0 -143 56 -291zM442 257q105 -100 239 -100q165 0 263.5 144.5t98.5 387.5q0 152 -59 308z" />
    <glyph glyph-name="infinity" unicode="&#x221e;" horiz-adv-x="1365" 
d="M688 564q-147 -190 -330 -190q-142 0 -232 90.5t-90 234.5q0 140 91 230t231 90q183 0 320 -189q140 189 331 189q141 0 230.5 -90.5t89.5 -232.5q0 -144 -90.5 -233.5t-234.5 -89.5q-180 0 -316 191zM783 697q98 -153 201 -153q64 0 105 44t41 112q0 62 -43 105t-105 43
q-55 0 -99.5 -33.5t-99.5 -117.5zM583 696q-97 152 -201 152q-64 0 -105.5 -44t-41.5 -112q0 -61 43.5 -104t104.5 -43q55 0 99.5 33.5t100.5 117.5z" />
    <glyph glyph-name="plusminus" unicode="&#xb1;" horiz-adv-x="1133" 
d="M645 790h385v-152h-385v-348h-158v348h-384v152h384v399h158v-399zM103 181h927v-154h-927v154z" />
    <glyph glyph-name="lessequal" unicode="&#x2264;" 
d="M955 1303v-191l-673 -304l673 -303v-191l-887 406v171zM955 254v-188h-887v188h887z" />
    <glyph glyph-name="greaterequal" unicode="&#x2265;" 
d="M68 314v191l673 304l-673 303v191l887 -413v-171zM68 66v188h887v-188h-887z" />
    <glyph glyph-name="yen" unicode="&#xa5;" horiz-adv-x="1133" 
d="M853 895h186v-131h-254l-77 -149h331v-131h-364v-484h-211v484h-370v131h336l-78 149h-258v131h190l-246 470h237l294 -589l292 589h234z" />
    <glyph glyph-name="mu" unicode="&#xb5;" 
d="M76 -348v1331h201v-540q0 -103 15.5 -156.5t57.5 -93.5q66 -64 162 -64q97 0 161 71q41 46 57.5 103.5t16.5 152.5v527h201v-983h-201v148q-43 -89 -100 -130t-138 -41q-78 0 -132.5 32.5t-99.5 106.5v-464h-201z" />
    <glyph glyph-name="partialdiff" unicode="&#x2202;" 
d="M153 1191l27 176q199 -24 335 -84.5t241 -171.5q104 -110 161 -261t57 -317q0 -248 -115 -390q-133 -163 -348 -163q-191 0 -326.5 136.5t-135.5 328.5q0 186 123.5 314.5t301.5 128.5q88 0 151.5 -28.5t126.5 -96.5q-57 128 -110.5 193.5t-145.5 119.5q-154 92 -343 115
zM515 739q-111 0 -186.5 -88t-75.5 -215t75.5 -215.5t182.5 -88.5q109 0 183 90t74 223q0 127 -71.5 210.5t-181.5 83.5z" />
    <glyph glyph-name="summation" unicode="&#x2211;" horiz-adv-x="1365" 
d="M1245 1536v-489h-181l-21 300h-765l513 -797l-513 -874h785l11 298h190v-486h-1213v209l504 853l-504 778v208h1194z" />
    <glyph glyph-name="product" unicode="&#x220f;" horiz-adv-x="1463" 
d="M78 1536h1306v-188h-166v-1672h166v-188h-534v188h167v1672h-572v-1672h165v-188h-532v188h166v1672h-166v188z" />
    <glyph glyph-name="pi" unicode="&#x3c0;" horiz-adv-x="1268" 
d="M220 0v801h-154v181h1135v-181h-152v-801h-201v801h-427v-801h-201z" />
    <glyph glyph-name="integral" unicode="&#x222b;" 
d="M152 -491l39 180q60 -20 105 -20q94 0 109 89q6 35 6 169v1132l1 95q0 181 40 251q75 131 258 131q63 0 161 -22l-39 -179q-60 20 -105 20q-73 0 -99 -54q-15 -33 -15 -183l-1 -119v-1034q0 -169 -6.5 -229t-28.5 -105q-71 -141 -275 -141q-84 0 -150 19z" />
    <glyph glyph-name="ordfeminine" unicode="&#xaa;" 
d="M393 1188h-128q7 92 72 142.5t178 50.5q119 0 174 -48t55 -151v-33v-227q0 -98 21 -145h-125q-10 35 -12 63q-61 -76 -175 -76q-94 0 -150.5 46t-56.5 124q0 158 244 213l102 21l23 5v17q0 85 -109 85q-99 0 -113 -87zM615 1080q-135 -27 -184 -55t-49 -77
q0 -37 27.5 -58.5t73.5 -21.5q69 0 100.5 39.5t31.5 124.5v48zM228 662h554v-95h-554v95z" />
    <glyph glyph-name="ordmasculine" unicode="&#xba;" 
d="M512 1382q125 0 205 -87.5t80 -222.5q0 -136 -80.5 -223.5t-204.5 -87.5q-125 0 -205 87.5t-80 223.5q0 135 80 222.5t205 87.5zM512 1275q-67 0 -108 -56.5t-41 -147.5t41 -147t108 -56t108 56t41 147t-41 147.5t-108 56.5zM235 662h554v-95h-554v95z" />
    <glyph glyph-name="Omega" unicode="&#x2126;" horiz-adv-x="1365" 
d="M58 0v181h328q-172 104 -250 239.5t-78 327.5q0 312 228 506q168 144 398 144q228 0 396 -144q227 -194 227 -506q0 -192 -78 -327.5t-248 -239.5h326v-181h-542v162q173 97 254.5 233.5t81.5 328.5q0 227 -145 374q-117 119 -272 119q-142 0 -256 -99
q-163 -142 -163 -396q0 -373 337 -560v-162h-544z" />
    <glyph glyph-name="ae" unicode="&#xe6;" horiz-adv-x="1545" 
d="M708 1020h746v-167h-461v-243h414v-167h-414v-276h470v-167h-670v231h-383l-147 -231h-230zM793 394v451l-284 -451h284z" />
    <glyph glyph-name="oslash" unicode="&#xf8;" horiz-adv-x="1158" 
d="M891 941l79 86h171l-163 -178q99 -141 99 -330q0 -144 -55.5 -264.5t-153.5 -189.5q-122 -86 -288 -86q-181 0 -316 99l-75 -85h-171l162 178q-53 75 -76 152.5t-23 178.5q0 143 55.5 263.5t153.5 189.5q123 86 288 86q175 0 313 -100zM757 810q-77 63 -176 63
q-131 0 -211.5 -102.5t-80.5 -270.5q0 -95 40 -182zM398 211q61 -64 179 -64q130 0 210.5 102.5t80.5 269.5q0 102 -38 183z" />
    <glyph glyph-name="questiondown" unicode="&#xbf;" horiz-adv-x="849" 
d="M461 973q57 0 97.5 -40.5t40.5 -97.5q0 -58 -40.5 -98.5t-97.5 -40.5q-58 0 -98.5 40.5t-40.5 98.5q0 57 41 97.5t98 40.5zM367 537h190v-23v-71q0 -118 -23.5 -174t-111.5 -150q-76 -80 -99.5 -120t-23.5 -91q0 -59 39 -93.5t106 -34.5q153 0 166 179h165
q0 -170 -94 -264.5t-264 -94.5q-154 0 -243.5 80t-89.5 217q0 85 32 145t137 169q79 83 97 124.5t18 141.5z" />
    <glyph glyph-name="exclamdown" unicode="&#xa1;" horiz-adv-x="513" 
d="M365 -381h-217l26 915h170zM256 973q57 0 97.5 -40.5t40.5 -97.5t-40.5 -98t-97.5 -41q-58 0 -98.5 40.5t-40.5 98.5q0 57 41 97.5t98 40.5z" />
    <glyph glyph-name="logicalnot" unicode="&#xac;" 
d="M754 0v358h-686v188h887v-546h-201z" />
    <glyph glyph-name="radical" unicode="&#x221a;" horiz-adv-x="1365" 
d="M1365 1700v-188h-385l-395 -1512h-260l-145 586h-180v188h346l58 -226q14 -55 41 -263l4 -29h16q23 160 53.5 304.5t83.5 350.5l204 789h559z" />
    <glyph glyph-name="florin" unicode="&#x192;" horiz-adv-x="1133" 
d="M763 972h220v-151h-247l-102 -582q-32 -179 -48.5 -245t-42.5 -116q-81 -156 -252 -156q-126 0 -266 82l30 165q130 -75 216 -75q69 0 97.5 60t68.5 285l102 582h-195v151h222l21 118q34 194 86 269q78 113 228 113q101 0 207 -57l-28 -160q-109 48 -161 48
q-58 0 -87 -50.5t-55 -198.5z" />
    <glyph glyph-name="approxequal" unicode="&#x2248;" 
d="M131 712l-114 75q62 140 129 198.5t165 58.5q73 0 222 -62q95 -40 124 -49t67 -9q53 0 88 26.5t78 97.5l117 -69q-65 -134 -130 -184q-82 -65 -175 -65q-70 0 -191 50l-106 44q-63 26 -108 26q-52 0 -88.5 -30.5t-77.5 -107.5zM131 337l-114 74q61 139 128.5 198.5
t165.5 59.5q73 0 222 -63q90 -38 122.5 -47.5t68.5 -9.5q52 0 87 26t79 98l117 -69q-65 -134 -130 -185q-82 -64 -174 -64q-69 0 -192 51l-106 43q-64 26 -108 26q-52 0 -89 -30.5t-77 -107.5z" />
    <glyph glyph-name="Delta" unicode="&#x2206;" horiz-adv-x="1365" 
d="M46 0l525 1365h217l531 -1365h-1273zM334 188h693l-347 932z" />
    <glyph glyph-name="guillemotleft" unicode="&#xab;" horiz-adv-x="898" 
d="M768 0h-163l-205 476l205 500h163l-172 -500zM438 0h-163l-205 476l205 500h163l-172 -500z" />
    <glyph glyph-name="guillemotright" unicode="&#xbb;" horiz-adv-x="898" 
d="M130 976h163l205 -477l-205 -499h-163l172 499zM460 976h163l205 -477l-205 -499h-163l172 499z" />
    <glyph glyph-name="ellipsis" unicode="&#x2026;" horiz-adv-x="1442" 
d="M258 260q58 0 98.5 -40.5t40.5 -98.5q0 -57 -41 -97.5t-98 -40.5t-97.5 40.5t-40.5 97.5t40.5 98t97.5 41zM719 260q58 0 98.5 -40.5t40.5 -98.5q0 -57 -41 -97.5t-98 -40.5t-97.5 40.5t-40.5 97.5t40.5 98t97.5 41zM1181 260q58 0 98.5 -40.5t40.5 -98.5
q0 -57 -41 -97.5t-98 -40.5t-97.5 40.5t-40.5 97.5q0 58 40.5 98.5t97.5 40.5z" />
    <glyph glyph-name="glyph172" horiz-adv-x="512" 
 />
    <glyph glyph-name="Agrave" unicode="&#xc0;" horiz-adv-x="1198" 
d="M495 1369h205l467 -1369h-219l-101 320h-497l-103 -320h-217zM791 502l-193 614l-193 -614h386zM741 1486h-195l-380 308h261z" />
    <glyph glyph-name="Atilde" unicode="&#xc3;" horiz-adv-x="1198" 
d="M495 1369h205l467 -1369h-219l-101 320h-497l-103 -320h-217zM791 502l-193 614l-193 -614h386zM366 1510l-104 31q56 209 203 209q55 0 147 -42q99 -45 136 -45q67 0 106 100l96 -30q-19 -100 -71.5 -158.5t-123.5 -58.5q-62 0 -153 39q-87 37 -103 42.5t-38 5.5
q-33 0 -58.5 -25t-36.5 -68z" />
    <glyph glyph-name="Otilde" unicode="&#xd5;" horiz-adv-x="1353" 
d="M676 1390q216 0 372 -139q106 -94 161.5 -240t55.5 -329q0 -375 -217 -568q-155 -139 -372 -139q-216 0 -371 139q-217 193 -217 568q0 183 55.5 329t161.5 240q155 139 371 139zM676 1208q-168 0 -267 -142t-99 -383q0 -242 99 -384t267 -142q169 0 268 142t99 384
t-99 383.5t-268 141.5zM447 1510l-104 31q29 109 77.5 159t124.5 50q55 0 147 -42q99 -45 136 -45q68 0 107 100l95 -30q-19 -100 -71.5 -158.5t-123.5 -58.5q-62 0 -153 39q-87 37 -102.5 42.5t-37.5 5.5q-34 0 -60 -25t-35 -68z" />
    <glyph glyph-name="OE" unicode="&#x152;" horiz-adv-x="1940" 
d="M1047 1235v130h805v-181h-596v-386h547v-181h-546v-435h613v-182h-823v131q-76 -84 -160.5 -120t-205.5 -36q-273 0 -433 191t-160 518q0 184 55.5 333t157.5 239q152 134 381 134q226 0 365 -155zM678 1208q-171 0 -269.5 -139.5t-98.5 -382.5q0 -249 97.5 -389
t270.5 -140q171 0 269.5 141.5t98.5 387.5q0 241 -99.5 381.5t-268.5 140.5z" />
    <glyph glyph-name="oe" unicode="&#x153;" horiz-adv-x="1618" 
d="M855 925v95h658v-167h-462v-242h424v-167h-424v-277h484v-167h-680v97q-98 -118 -273 -118q-226 0 -363.5 146t-137.5 386q0 233 136.5 382t350.5 149q186 0 287 -117zM578 874q-127 0 -207.5 -101t-80.5 -260q0 -163 79 -264.5t205 -101.5q129 0 205 99t76 268
q0 162 -76 261t-201 99z" />
    <glyph glyph-name="endash" unicode="&#x2013;" 
d="M115 591h793v-150h-793v150z" />
    <glyph glyph-name="emdash" unicode="&#x2014;" horiz-adv-x="1241" 
d="M0 591h1241v-150h-1241v150z" />
    <glyph glyph-name="quotedblleft" unicode="&#x201c;" horiz-adv-x="765" 
d="M575 1390h120q-107 -119 -121 -237q60 -3 94 -34t34 -83q0 -53 -38 -90t-92 -37q-63 0 -101.5 46.5t-38.5 121.5q0 140 143 313zM238 1390h121q-107 -118 -122 -237q61 -3 95 -34t34 -83q0 -53 -38.5 -90t-91.5 -37q-64 0 -102.5 46.5t-38.5 122.5q0 139 143 312z" />
    <glyph glyph-name="quotedblright" unicode="&#x201d;" horiz-adv-x="774" 
d="M191 910h-121q106 118 121 237q-60 3 -94 34t-34 83t38 89t92 37q64 0 102.5 -46.5t38.5 -122.5q0 -140 -143 -311zM537 910h-121q107 118 122 237q-61 3 -95 34t-34 83t38.5 89t92.5 37q63 0 101.5 -46t38.5 -122q0 -141 -143 -312z" />
    <glyph glyph-name="quoteleft" unicode="&#x2018;" horiz-adv-x="428" 
d="M238 1390h121q-107 -118 -122 -237q61 -3 95 -34t34 -83q0 -53 -38.5 -90t-91.5 -37q-64 0 -102.5 46.5t-38.5 122.5q0 139 143 312z" />
    <glyph glyph-name="quoteright" unicode="&#x2019;" horiz-adv-x="443" 
d="M205 910h-120q107 119 121 237q-60 3 -94 34t-34 83t38 89t92 37q64 0 102.5 -46t38.5 -122q0 -141 -144 -312z" />
    <glyph glyph-name="divide" unicode="&#xf7;" horiz-adv-x="1133" 
d="M566 496q50 0 85.5 -35.5t35.5 -86.5q0 -49 -35.5 -84.5t-85.5 -35.5t-85.5 35.5t-35.5 84.5q0 51 35 86.5t86 35.5zM566 1112q50 0 85.5 -35.5t35.5 -86.5q0 -49 -35.5 -84.5t-85.5 -35.5t-85.5 35.5t-35.5 84.5q0 51 35.5 86.5t85.5 35.5zM103 762h927v-154h-927v154z
" />
    <glyph glyph-name="lozenge" unicode="&#x25ca;" horiz-adv-x="1365" 
d="M683 1419l531 -736l-531 -736l-532 736zM683 1238l-404 -555l404 -554l403 554z" />
    <glyph glyph-name="ydieresis" unicode="&#xff;" horiz-adv-x="941" 
d="M6 1020h238l227 -430l227 430h237l-363 -605v-415h-203v415zM294 1426q51 0 87.5 -36.5t36.5 -87.5q0 -52 -36.5 -88.5t-87.5 -36.5q-52 0 -88.5 36.5t-36.5 88.5q0 51 36.5 87.5t88.5 36.5zM648 1426q51 0 87.5 -36.5t36.5 -87.5q0 -52 -36.5 -88.5t-87.5 -36.5
q-52 0 -88.5 36.5t-36.5 88.5q0 51 36.5 87.5t88.5 36.5z" />
    <glyph glyph-name="Ydieresis" unicode="&#x178;" horiz-adv-x="1103" 
d="M11 1365h239l305 -588l301 588h236l-435 -811v-554h-210v554zM364 1774q56 0 95.5 -39.5t39.5 -95.5q0 -55 -39.5 -94.5t-95.5 -39.5q-55 0 -94.5 39.5t-39.5 94.5q0 56 39.5 95.5t94.5 39.5zM738 1774q57 0 96 -39t39 -96q0 -55 -39.5 -94.5t-95.5 -39.5
q-55 0 -94.5 39.5t-39.5 94.5q0 56 39.5 95.5t94.5 39.5z" />
    <glyph glyph-name="fraction" unicode="&#x2215;" horiz-adv-x="227" 
d="M417 1331h166l-774 -1331h-165z" />
    <glyph glyph-name="currency" unicode="&#xa4;" horiz-adv-x="1365" 
d="M79 265l201 202q-97 129 -97 286q0 149 98 286l-205 203l113 113l203 -203q138 96 295 96q148 0 283 -94l202 200l112 -112l-201 -200q99 -140 99 -289q0 -150 -96 -285l202 -202l-110 -113l-203 202q-137 -97 -292 -97q-144 0 -291 96l-201 -200zM683 1067
q-130 0 -221.5 -92t-91.5 -223q0 -128 92 -220.5t221 -92.5q128 0 220 92t92 221q0 131 -91 223t-221 92z" />
    <glyph glyph-name="guilsinglleft" unicode="&#x2039;" horiz-adv-x="562" 
d="M439 0h-172l-205 476l205 499h172l-172 -499z" />
    <glyph glyph-name="guilsinglright" unicode="&#x203a;" horiz-adv-x="562" 
d="M123 975h171l206 -476l-206 -499h-171l172 499z" />
    <glyph glyph-name="fi" unicode="&#xf001;" horiz-adv-x="1374" 
d="M344 611h439v-167h-438v-444h-205v1020h681v-167h-477v-242zM1233 0h-205v1020h205v-1020z" />
    <glyph glyph-name="fl" unicode="&#xf002;" horiz-adv-x="1751" 
d="M344 611h439v-167h-438v-444h-205v1020h681v-167h-477v-242zM1026 1020h205v-853h473v-167h-678v1020z" />
    <glyph glyph-name="daggerdbl" unicode="&#x2021;" 
d="M417 1331h189v-207h328v-161h-328v-816h328v-161h-328v-256h-189v256h-327v161h327v816h-327v161h327v207z" />
    <glyph glyph-name="periodcentered" unicode="&#x2219;" horiz-adv-x="518" 
d="M258 652q58 0 98.5 -40.5t40.5 -98.5q0 -57 -41 -97.5t-98 -40.5t-97.5 40.5t-40.5 97.5q0 58 40.5 98.5t97.5 40.5z" />
    <glyph glyph-name="quotesinglbase" unicode="&#x201a;" horiz-adv-x="443" 
d="M205 -236h-120q107 119 121 237q-60 4 -94 34.5t-34 82.5q0 53 38 90t92 37q64 0 102.5 -46t38.5 -122q0 -141 -144 -313z" />
    <glyph glyph-name="quotedblbase" unicode="&#x201e;" horiz-adv-x="774" 
d="M191 -236h-121q106 117 121 237q-61 4 -94.5 34.5t-33.5 82.5q0 53 38 90t92 37q64 0 102.5 -46.5t38.5 -122.5q0 -139 -143 -312zM537 -236h-121q107 118 122 237q-61 4 -95 34.5t-34 82.5q0 53 38.5 90t92.5 37q63 0 101.5 -46t38.5 -122q0 -140 -143 -313z" />
    <glyph glyph-name="perthousand" unicode="&#x2030;" horiz-adv-x="1971" 
d="M974 1365h173l-797 -1365h-172zM993 648q116 0 195.5 -95.5t79.5 -234.5q0 -138 -79.5 -233.5t-195.5 -95.5t-195.5 95.5t-79.5 233.5q0 139 79.5 234.5t195.5 95.5zM993 525q-60 0 -98 -57.5t-38 -148.5q0 -92 38 -149.5t98 -57.5t98 57.5t38 149.5q0 91 -38 148.5
t-98 57.5zM1638 648q115 0 194.5 -95.5t79.5 -234.5q0 -138 -79.5 -233.5t-194.5 -95.5q-116 0 -195.5 95.5t-79.5 233.5q0 139 79.5 234.5t195.5 95.5zM1638 525q-60 0 -98 -57.5t-38 -148.5q0 -92 38 -149.5t98 -57.5q59 0 97 57.5t38 149.5q0 91 -38 148.5t-97 57.5z
M333 1376q115 0 194.5 -95.5t79.5 -234.5q0 -138 -79.5 -233.5t-194.5 -95.5q-116 0 -195.5 95.5t-79.5 233.5q0 139 79.5 234.5t195.5 95.5zM333 1253q-61 0 -98.5 -57.5t-37.5 -148.5q0 -92 38 -149.5t98 -57.5q59 0 97 57.5t38 149.5q0 91 -37.5 148.5t-97.5 57.5z" />
    <glyph glyph-name="Acircumflex" unicode="&#xc2;" horiz-adv-x="1198" 
d="M495 1369h205l467 -1369h-219l-101 320h-497l-103 -320h-217zM791 502l-193 614l-193 -614h386zM232 1500l274 279h185l275 -279h-194l-173 169l-173 -169h-194z" />
    <glyph glyph-name="Ecircumflex" unicode="&#xca;" horiz-adv-x="1066" 
d="M380 798h548v-182h-548v-434h615v-182h-826v1365h808v-181h-597v-386zM209 1500l275 279h185l274 -279h-193l-174 169l-172 -169h-195z" />
    <glyph glyph-name="Aacute" unicode="&#xc1;" horiz-adv-x="1198" 
d="M495 1369h205l467 -1369h-219l-101 320h-497l-103 -320h-217zM791 502l-193 614l-193 -614h386zM456 1486l313 308h262l-381 -308h-194z" />
    <glyph glyph-name="Edieresis" unicode="&#xcb;" horiz-adv-x="1066" 
d="M380 798h548v-182h-548v-434h615v-182h-826v1365h808v-181h-597v-386zM389 1774q56 0 95 -39t39 -96q0 -55 -39.5 -94.5t-94.5 -39.5q-56 0 -95.5 39.5t-39.5 94.5q0 56 39.5 95.5t95.5 39.5zM762 1774q56 0 95 -39t39 -96q0 -55 -39.5 -94.5t-94.5 -39.5
q-56 0 -95.5 39.5t-39.5 94.5q0 56 39.5 95.5t95.5 39.5z" />
    <glyph glyph-name="Egrave" unicode="&#xc8;" horiz-adv-x="1066" 
d="M375 798h548v-182h-548v-434h615v-182h-826v1365h808v-181h-597v-386zM748 1486h-195l-380 308h261z" />
    <glyph glyph-name="Iacute" unicode="&#xcd;" horiz-adv-x="550" 
d="M381 0h-213v1365h213v-1365zM141 1486l259 308h248l-326 -308h-181z" />
    <glyph glyph-name="Icircumflex" unicode="&#xce;" horiz-adv-x="550" 
d="M381 0h-213v1365h213v-1365zM-44 1500l226 279h185l227 -279h-186l-133 169l-131 -169h-188z" />
    <glyph glyph-name="Idieresis" unicode="&#xcf;" horiz-adv-x="550" 
d="M381 0h-213v1365h213v-1365zM112 1767q54 0 91.5 -37.5t37.5 -91.5q0 -53 -38 -91t-91 -38t-91 38t-38 91q0 54 37.5 91.5t91.5 37.5zM439 1767q54 0 91.5 -37.5t37.5 -91.5q0 -53 -38 -91t-91 -38t-91 38t-38 91q0 54 37.5 91.5t91.5 37.5z" />
    <glyph glyph-name="Igrave" unicode="&#xcc;" horiz-adv-x="550" 
d="M381 0h-213v1365h213v-1365zM409 1486h-181l-326 308h248z" />
    <glyph glyph-name="Oacute" unicode="&#xd3;" horiz-adv-x="1353" 
d="M676 1390q216 0 372 -139q106 -94 161.5 -240t55.5 -329q0 -375 -217 -568q-155 -139 -372 -139q-216 0 -371 139q-217 193 -217 568q0 183 55.5 329t161.5 240q155 139 371 139zM676 1208q-168 0 -267 -142t-99 -383q0 -242 99 -384t267 -142q169 0 268 142t99 384
t-99 383.5t-268 141.5zM495 1486l314 308h261l-380 -308h-195z" />
    <glyph glyph-name="Ocircumflex" unicode="&#xd4;" horiz-adv-x="1353" 
d="M676 1390q216 0 372 -139q106 -94 161.5 -240t55.5 -329q0 -375 -217 -568q-155 -139 -372 -139q-216 0 -371 139q-217 193 -217 568q0 183 55.5 329t161.5 240q155 139 371 139zM676 1208q-168 0 -267 -142t-99 -383q0 -242 99 -384t267 -142q169 0 268 142t99 384
t-99 383.5t-268 141.5zM310 1500l274 279h185l274 -279h-193l-173 169l-173 -169h-194z" />
    <glyph glyph-name="apple" horiz-adv-x="512" 
 />
    <glyph glyph-name="Ograve" unicode="&#xd2;" horiz-adv-x="1353" 
d="M676 1390q216 0 372 -139q106 -94 161.5 -240t55.5 -329q0 -375 -217 -568q-155 -139 -372 -139q-216 0 -371 139q-217 193 -217 568q0 183 55.5 329t161.5 240q155 139 371 139zM676 1208q-168 0 -267 -142t-99 -383q0 -242 99 -384t267 -142q169 0 268 142t99 384
t-99 383.5t-268 141.5zM858 1486h-195l-380 308h261z" />
    <glyph glyph-name="Uacute" unicode="&#xda;" horiz-adv-x="1334" 
d="M153 1365h211v-793q0 -121 6 -173t26 -95q32 -69 103 -107t168 -38q96 0 167 38t103 107q20 43 26 94.5t6 173.5v793h211v-796q0 -165 -11 -235.5t-48 -134.5q-60 -107 -179 -165.5t-275 -58.5q-157 0 -276 59t-180 165q-36 64 -47 134t-11 236v796zM479 1486l314 308
h262l-381 -308h-195z" />
    <glyph glyph-name="Ucircumflex" unicode="&#xdb;" horiz-adv-x="1334" 
d="M153 1365h211v-793q0 -121 6 -173t26 -95q32 -69 103 -107t168 -38q96 0 167 38t103 107q20 43 26 94.5t6 173.5v793h211v-796q0 -165 -11 -235.5t-48 -134.5q-60 -107 -179 -165.5t-275 -58.5q-157 0 -276 59t-180 165q-36 64 -47 134t-11 236v796zM300 1500l274 279
h185l275 -279h-194l-173 169l-172 -169h-195z" />
    <glyph glyph-name="Ugrave" unicode="&#xd9;" horiz-adv-x="1334" 
d="M153 1365h211v-793q0 -121 6 -173t26 -95q32 -69 103 -107t168 -38q96 0 167 38t103 107q20 43 26 94.5t6 173.5v793h211v-796q0 -165 -11 -235.5t-48 -134.5q-60 -107 -179 -165.5t-275 -58.5q-157 0 -276 59t-180 165q-36 64 -47 134t-11 236v796zM857 1486h-195
l-380 308h261z" />
    <glyph glyph-name="dotlessi" unicode="&#x131;" horiz-adv-x="489" 
d="M347 0h-205v1020h205v-1020z" />
    <glyph glyph-name="circumflex" unicode="&#x2c6;" 
d="M179 1149l240 300h185l240 -300h-185l-147 184l-146 -184h-187z" />
    <glyph glyph-name="tilde" unicode="&#x2dc;" 
d="M296 1171l-95 24q50 215 176 215q53 0 140 -42q92 -44 123 -44q60 0 96 100l89 -24q-17 -104 -64.5 -164t-111.5 -60q-48 0 -144 44t-123 44q-60 0 -86 -93z" />
    <glyph glyph-name="macron" unicode="&#xaf;" 
d="M224 1347h576v-131h-576v131z" />
    <glyph glyph-name="breve" unicode="&#x2d8;" 
d="M247 1430h95q56 -150 170 -150q61 0 101 35t70 115h95q-14 -135 -84.5 -211t-181.5 -76q-105 0 -178.5 79.5t-86.5 207.5z" />
    <glyph glyph-name="dotaccent" unicode="&#x2d9;" 
d="M512 1426q51 0 87.5 -36.5t36.5 -87.5q0 -52 -36.5 -88.5t-87.5 -36.5q-52 0 -88.5 36.5t-36.5 88.5q0 51 36.5 87.5t88.5 36.5z" />
    <glyph glyph-name="ring" unicode="&#x2da;" 
d="M512 1504q82 0 139.5 -57.5t57.5 -139.5q0 -81 -57.5 -138.5t-139.5 -57.5q-81 0 -138.5 57.5t-57.5 138.5q0 82 57.5 139.5t138.5 57.5zM512 1408q-41 0 -70.5 -29.5t-29.5 -70.5q0 -42 29.5 -71.5t70.5 -29.5q42 0 71.5 29.5t29.5 71.5q0 41 -29.5 70.5t-71.5 29.5z
" />
    <glyph glyph-name="cedilla" unicode="&#xb8;" 
d="M490 0h118l-41 -102q182 -32 182 -173q0 -84 -58.5 -137t-150.5 -53q-70 0 -161 48v89l23 -9q61 -25 99 -25q48 0 77 28t29 74q0 49 -34.5 77t-94.5 28q-15 0 -48 -3z" />
    <glyph glyph-name="hungarumlaut" unicode="&#x2dd;" 
d="M294 1141l200 308h228l-284 -308h-144zM595 1141l200 308h228l-284 -308h-144z" />
    <glyph glyph-name="ogonek" unicode="&#x2db;" 
d="M642 0h171q-199 -107 -199 -196q0 -41 27.5 -64.5t74.5 -23.5q46 0 91 18v-99q-60 -27 -136 -27q-89 0 -147 52t-58 133q0 130 176 207z" />
    <glyph glyph-name="caron" unicode="&#x2c7;" 
d="M844 1449l-240 -300h-185l-240 300h186l147 -184l145 184h187z" />
    <glyph glyph-name="Lslash" unicode="&#x141;" horiz-adv-x="1016" 
d="M170 715v650h217v-530l321 238v-189l-321 -238v-464h588v-182h-805v526l-137 -107v189z" />
    <glyph glyph-name="lslash" unicode="&#x142;" horiz-adv-x="865" 
d="M345 643l250 179v-178l-250 -178v-299h473v-167h-678v360l-123 -87v177l123 88v482h205v-377z" />
    <glyph glyph-name="Scaron" unicode="&#x160;" horiz-adv-x="1140" 
d="M1009 987h-204q-9 104 -72.5 161.5t-170.5 57.5q-95 0 -158.5 -50.5t-63.5 -125.5q0 -66 62 -112q39 -29 246 -117q148 -62 210.5 -97t101.5 -78q88 -96 88 -245q0 -184 -127 -295t-338 -111q-235 0 -362 119t-138 348h205q12 -140 86.5 -211.5t209.5 -71.5
q108 0 177.5 52.5t69.5 133.5t-73 139q-32 24 -73 45t-167 74q-209 90 -281 156q-109 102 -109 252q0 166 123.5 272.5t316.5 106.5q227 0 351 -145q81 -94 90 -258zM939 1779l-274 -279h-185l-274 279h193l173 -169l173 169h194z" />
    <glyph glyph-name="scaron" unicode="&#x161;" horiz-adv-x="992" 
d="M875 734h-198q-21 140 -187 140q-78 0 -124 -31t-46 -83q0 -50 37 -74t193 -75q211 -68 274 -130q77 -76 77 -194q0 -142 -107 -225t-290 -83q-229 0 -339 118q-82 88 -82 251h200q5 -101 45 -143q56 -58 174 -58q92 0 142 34t50 97q0 59 -39.5 87t-199.5 81
q-194 64 -250 114q-88 78 -88 195q0 129 103.5 208t272.5 79q179 0 275.5 -78t106.5 -230zM838 1449l-240 -300h-185l-240 300h186l147 -184l145 184h187z" />
    <glyph glyph-name="Zcaron" unicode="&#x17d;" horiz-adv-x="1018" 
d="M107 1365h860v-148l-664 -1035h647v-182h-896v165l657 1021h-604v179zM900 1779l-274 -279h-185l-275 279h194l173 -169l172 169h195z" />
    <glyph glyph-name="zcaron" unicode="&#x17e;" horiz-adv-x="841" 
d="M87 1020h673v-139l-474 -714h489v-167h-718v151l468 704h-438v165zM753 1449l-240 -300h-185l-240 300h186l147 -184l145 184h187z" />
    <glyph glyph-name="brokenbar" unicode="&#xa6;" 
d="M411 1365h201v-694h-201v694zM411 314h201v-655h-201v655z" />
    <glyph glyph-name="Eth" unicode="&#xd0;" horiz-adv-x="1304" 
d="M170 1365h277q192 0 299.5 -21t190.5 -76q131 -85 205 -240t74 -343q0 -191 -71.5 -345t-198.5 -239q-91 -61 -195 -81t-333 -20h-248v628h-123v171h123v566zM381 182h110q145 0 217 17t133 66q76 60 116.5 170.5t40.5 256.5q0 136 -45 246t-126 169q-65 49 -136.5 63
t-250.5 14h-59v-385h297v-171h-297v-446z" />
    <glyph glyph-name="eth" unicode="&#xf0;" horiz-adv-x="1103" 
d="M140 446h-123v165h123v409h255q160 0 242.5 -15t152.5 -56q109 -64 170.5 -180t61.5 -257q0 -147 -59 -262.5t-167 -178.5q-72 -42 -160 -56.5t-270 -14.5h-226v446zM344 447v-280h85q110 0 168 12t101 44q115 86 115 282q0 207 -126 296q-47 33 -100.5 42.5t-196.5 9.5
h-46v-242h242v-164h-242z" />
    <glyph glyph-name="Yacute" unicode="&#xdd;" horiz-adv-x="1103" 
d="M11 1365h239l305 -588l301 588h236l-435 -811v-554h-210v554zM373 1486l314 308h261l-380 -308h-195z" />
    <glyph glyph-name="yacute" unicode="&#xfd;" horiz-adv-x="941" 
d="M6 1020h238l227 -430l227 430h237l-363 -605v-415h-203v415zM312 1141l238 308h261l-342 -308h-157z" />
    <glyph glyph-name="Thorn" unicode="&#xde;" horiz-adv-x="1119" 
d="M169 1365h211v-159h64q167 0 257.5 -11t155.5 -39q102 -45 160 -143.5t58 -227.5q0 -127 -56.5 -223.5t-156.5 -140.5q-61 -27 -145.5 -37.5t-245.5 -10.5h-91v-373h-211v1365zM380 555h90h68q160 0 227 42q92 58 92 188q0 145 -100 200q-43 23 -103 31.5t-186 8.5h-88
v-470z" />
    <glyph glyph-name="thorn" unicode="&#xfe;" horiz-adv-x="975" 
d="M140 1020h204v-130h64q250 0 336 -31q87 -31 136 -109t49 -186q0 -151 -86 -231.5t-248 -80.5l-96 -1l-70 -1h-85v-250h-204v1020zM344 417h84q165 0 209 15q83 28 83 135q0 99 -66 131q-51 25 -228 25h-82v-306z" />
    <glyph glyph-name="minus" unicode="&#x2212;" horiz-adv-x="1133" 
d="M103 762h927v-154h-927v154z" />
    <glyph glyph-name="multiply" unicode="&#xd7;" horiz-adv-x="1133" 
d="M677 684l293 -293l-109 -108l-291 291l-298 -297l-110 110l298 297l-292 292l109 109l291 -292l293 292l110 -110z" />
    <glyph glyph-name="onesuperior" unicode="&#xb9;" horiz-adv-x="739" 
d="M159 1121v82q84 0 127.5 30.5t61.5 102.5h97v-804h-138v589h-148z" />
    <glyph glyph-name="twosuperior" unicode="&#xb2;" horiz-adv-x="739" 
d="M243 1096h-122q0 120 68.5 185.5t193.5 65.5q112 0 179 -58t67 -153q0 -67 -56.5 -149t-263.5 -316l-15 -17h344v-122h-526v105l20 24l82 94q176 202 224.5 270t48.5 112q0 42 -31.5 67t-83.5 25q-118 0 -129 -133z" />
    <glyph glyph-name="threesuperior" unicode="&#xb3;" horiz-adv-x="739" 
d="M237 1124h-121q0 105 70.5 167.5t189.5 62.5q111 0 178.5 -56.5t67.5 -150.5q0 -122 -120 -176q138 -46 138 -194q0 -109 -77.5 -177t-202.5 -68q-135 0 -207 65t-72 186h126q0 -134 149 -134q68 0 106.5 34t38.5 95q0 67 -46.5 97.5t-149.5 30.5q-9 0 -33 -1v113
q25 -1 37 -1q83 0 128 30.5t45 86.5q0 48 -31 76t-84 28q-114 0 -130 -114z" />
    <glyph glyph-name="onehalf" unicode="&#xbd;" horiz-adv-x="1746" 
d="M159 1121v82q83 0 127 31t61 102h97v-804h-138v589h-147zM1177 1331h165l-774 -1331h-164zM1249 564h-122q0 120 68.5 185.5t193.5 65.5q112 0 179 -58t67 -154q0 -74 -72 -171q-68 -92 -248 -293l-15 -17h344v-122h-526v105q18 21 20 24l82 94q173 197 223 267.5
t50 114.5q0 41 -32 66.5t-84 25.5q-118 0 -128 -133z" />
    <glyph glyph-name="onequarter" unicode="&#xbc;" horiz-adv-x="1746" 
d="M159 1121v82q84 0 127.5 31t61.5 102h97v-804h-138v589h-148zM1177 1331h165l-774 -1331h-164zM1539 287h148v-111h-145v-185h-140v185h-342v103l329 524h150v-516zM1408 287v350l-212 -350h212z" />
    <glyph glyph-name="threequarters" unicode="&#xbe;" horiz-adv-x="1745" 
d="M237 1124h-121q0 105 70.5 167.5t189.5 62.5q111 0 178.5 -56.5t67.5 -150.5q0 -122 -120 -176q138 -46 138 -194q0 -109 -77.5 -177t-202.5 -68q-135 0 -207 65t-72 186h126q0 -134 149 -134q68 0 106.5 34t38.5 95q0 67 -46.5 97.5t-149.5 30.5q-9 0 -33 -1v113
q25 -1 37 -1q83 0 128 30.5t45 86.5q0 48 -31 76t-84 28q-114 0 -130 -114zM1177 1331h165l-774 -1331h-165zM1539 287h147v-111h-144v-185h-140v185h-343v103l330 524h150v-516zM1409 287v350l-213 -350h213z" />
    <glyph glyph-name="middot" horiz-adv-x="512" 
 />
    <glyph glyph-name="sfthyphen" unicode="&#xad;" horiz-adv-x="547" 
d="M0 591h547v-150h-547v150z" />
    <glyph glyph-name="glyph249" horiz-adv-x="512" 
 />
    <glyph glyph-name="glyph250" horiz-adv-x="512" 
 />
    <glyph glyph-name="glyph251" horiz-adv-x="512" 
 />
    <glyph glyph-name="glyph252" horiz-adv-x="512" 
 />
    <glyph glyph-name="glyph253" horiz-adv-x="512" 
 />
    <glyph glyph-name="glyph254" horiz-adv-x="512" 
 />
    <glyph glyph-name="glyph255" horiz-adv-x="512" 
 />
    <glyph glyph-name="glyph256" horiz-adv-x="512" 
 />
    <glyph glyph-name="glyph257" horiz-adv-x="512" 
 />
    <glyph glyph-name="glyph258" horiz-adv-x="512" 
 />
    <glyph glyph-name="glyph259" horiz-adv-x="1198" 
d="M411 1774q56 0 95.5 -39.5t39.5 -95.5q0 -55 -39.5 -94.5t-95.5 -39.5q-55 0 -94.5 39.5t-39.5 94.5q0 56 39.5 95.5t94.5 39.5zM785 1774q56 0 95.5 -39.5t39.5 -95.5q0 -55 -39.5 -94.5t-95.5 -39.5q-55 0 -94.5 39.5t-39.5 94.5q0 56 39.5 95.5t94.5 39.5z" />
    <glyph glyph-name="glyph260" horiz-adv-x="1198" 
d="M456 1486l313 308h262l-381 -308h-194z" />
    <glyph glyph-name="glyph261" horiz-adv-x="1198" 
d="M741 1486h-195l-380 308h261z" />
    <glyph glyph-name="glyph262" horiz-adv-x="1198" 
d="M232 1500l274 279h185l275 -279h-194l-173 169l-173 -169h-194z" />
    <glyph glyph-name="glyph263" horiz-adv-x="1198" 
d="M366 1510l-104 31q56 209 203 209q55 0 147 -42q99 -45 136 -45q67 0 106 100l96 -30q-19 -100 -71.5 -158.5t-123.5 -58.5q-62 0 -153 39q-87 37 -103 42.5t-38 5.5q-33 0 -58.5 -25t-36.5 -68z" />
    <glyph glyph-name="glyph264" horiz-adv-x="1198" 
d="M600 1853q81 0 138.5 -57.5t57.5 -139.5q0 -81 -57.5 -138.5t-138.5 -57.5q-82 0 -139.5 57.5t-57.5 138.5q0 82 57.5 139.5t139.5 57.5zM600 1757q-42 0 -71.5 -29.5t-29.5 -71.5q0 -41 29.5 -70.5t71.5 -29.5q41 0 70.5 29.5t29.5 70.5q0 42 -29.5 71.5t-70.5 29.5z
" />
    <glyph glyph-name="glyph265" horiz-adv-x="1066" 
d="M389 1774q56 0 95 -39t39 -96q0 -55 -39.5 -94.5t-94.5 -39.5q-56 0 -95.5 39.5t-39.5 94.5q0 56 39.5 95.5t95.5 39.5zM762 1774q56 0 95 -39t39 -96q0 -55 -39.5 -94.5t-94.5 -39.5q-56 0 -95.5 39.5t-39.5 94.5q0 56 39.5 95.5t95.5 39.5z" />
    <glyph glyph-name="glyph266" horiz-adv-x="1066" 
d="M394 1486l313 308h262l-381 -308h-194z" />
    <glyph glyph-name="glyph267" horiz-adv-x="1066" 
d="M748 1486h-195l-380 308h261z" />
    <glyph glyph-name="glyph268" horiz-adv-x="1066" 
d="M209 1500l275 279h185l274 -279h-193l-174 169l-172 -169h-195z" />
    <glyph glyph-name="glyph269" horiz-adv-x="550" 
d="M112 1767q54 0 91.5 -37.5t37.5 -91.5q0 -53 -38 -91t-91 -38t-91 38t-38 91q0 54 37.5 91.5t91.5 37.5zM439 1767q54 0 91.5 -37.5t37.5 -91.5q0 -53 -38 -91t-91 -38t-91 38t-38 91q0 54 37.5 91.5t91.5 37.5z" />
    <glyph glyph-name="glyph270" horiz-adv-x="550" 
d="M141 1486l259 308h248l-326 -308h-181z" />
    <glyph glyph-name="glyph271" horiz-adv-x="550" 
d="M409 1486h-181l-326 308h248z" />
    <glyph glyph-name="glyph272" horiz-adv-x="550" 
d="M-44 1500l226 279h185l227 -279h-186l-133 169l-131 -169h-188z" />
    <glyph glyph-name="glyph273" horiz-adv-x="1368" 
d="M455 1510l-103 31q56 209 202 209q55 0 147 -42q99 -45 136 -45q68 0 107 100l95 -30q-19 -100 -71.5 -158.5t-123.5 -58.5q-62 0 -153 39q-84 37 -101 42.5t-40 5.5q-34 0 -59.5 -25t-35.5 -68z" />
    <glyph glyph-name="glyph274" horiz-adv-x="1353" 
d="M490 1774q55 0 94.5 -39.5t39.5 -95.5q0 -55 -39.5 -94.5t-94.5 -39.5q-56 0 -95.5 39.5t-39.5 94.5q0 56 39.5 95.5t95.5 39.5zM864 1774q56 0 95 -39t39 -96q0 -55 -39.5 -94.5t-94.5 -39.5q-56 0 -95.5 39.5t-39.5 94.5q0 56 39.5 95.5t95.5 39.5z" />
    <glyph glyph-name="glyph275" horiz-adv-x="1353" 
d="M495 1486l314 308h261l-380 -308h-195z" />
    <glyph glyph-name="glyph276" horiz-adv-x="1353" 
d="M858 1486h-195l-380 308h261z" />
    <glyph glyph-name="glyph277" horiz-adv-x="1353" 
d="M310 1500l274 279h185l274 -279h-193l-173 169l-173 -169h-194z" />
    <glyph glyph-name="glyph278" horiz-adv-x="1353" 
d="M447 1510l-104 31q29 109 77.5 159t124.5 50q55 0 147 -42q99 -45 136 -45q68 0 107 100l95 -30q-19 -100 -71.5 -158.5t-123.5 -58.5q-62 0 -153 39q-87 37 -102.5 42.5t-37.5 5.5q-34 0 -60 -25t-35 -68z" />
    <glyph glyph-name="glyph279" horiz-adv-x="1140" 
d="M939 1779l-274 -279h-185l-274 279h193l173 -169l173 169h194z" />
    <glyph glyph-name="glyph280" horiz-adv-x="1334" 
d="M479 1774q57 0 96 -39t39 -96q0 -56 -39.5 -95t-95.5 -39q-55 0 -94.5 39.5t-39.5 94.5q0 56 39.5 95.5t94.5 39.5zM853 1774q56 0 95.5 -39.5t39.5 -95.5q0 -55 -39.5 -94.5t-95.5 -39.5q-55 0 -94.5 39.5t-39.5 94.5q0 56 39.5 95.5t94.5 39.5z" />
    <glyph glyph-name="glyph281" horiz-adv-x="1334" 
d="M479 1486l314 308h262l-381 -308h-195z" />
    <glyph glyph-name="glyph282" horiz-adv-x="1334" 
d="M857 1486h-195l-380 308h261z" />
    <glyph glyph-name="glyph283" horiz-adv-x="1334" 
d="M300 1500l274 279h185l275 -279h-194l-173 169l-172 -169h-195z" />
    <glyph glyph-name="glyph284" horiz-adv-x="1103" 
d="M373 1486l314 308h261l-380 -308h-195z" />
    <glyph glyph-name="glyph285" horiz-adv-x="1018" 
d="M900 1779l-274 -279h-185l-275 279h194l173 -169l172 169h195z" />
    <glyph glyph-name="glyph286" horiz-adv-x="1103" 
d="M364 1774q56 0 95.5 -39.5t39.5 -95.5q0 -55 -39.5 -94.5t-95.5 -39.5q-55 0 -94.5 39.5t-39.5 94.5q0 56 39.5 95.5t94.5 39.5zM738 1774q57 0 96 -39t39 -96q0 -55 -39.5 -94.5t-95.5 -39.5q-55 0 -94.5 39.5t-39.5 94.5q0 56 39.5 95.5t94.5 39.5z" />
    <glyph glyph-name="glyph287" horiz-adv-x="489" 
d="M86 1426q51 0 87.5 -36.5t36.5 -87.5q0 -52 -36.5 -88.5t-87.5 -36.5q-52 0 -88.5 36.5t-36.5 88.5q0 51 36.5 87.5t88.5 36.5zM403 1426q51 0 87.5 -36.5t36.5 -87.5q0 -52 -36.5 -88.5t-87.5 -36.5q-52 0 -88.5 36.5t-36.5 88.5q0 51 36.5 87.5t88.5 36.5z" />
    <glyph glyph-name="glyph288" horiz-adv-x="488" 
d="M131 1141l170 308h234l-254 -308h-150z" />
    <glyph glyph-name="glyph289" horiz-adv-x="488" 
d="M358 1141h-150l-254 308h234z" />
    <glyph glyph-name="glyph290" horiz-adv-x="488" 
d="M-48 1149l199 300h185l200 -300h-180l-112 184l-112 -184h-180z" />
    <glyph glyph-name="glyph291" horiz-adv-x="512" 
 />
    </font>
</defs>
</svg>
