<?xml version="1.0" standalone="no"?>
<!DOCTYPE svg PUBLIC "-//W3C//DTD SVG 1.1//EN" "http://www.w3.org/Graphics/SVG/1.1/DTD/svg11.dtd" >
<svg xmlns="http://www.w3.org/2000/svg" xmlns:xlink="http://www.w3.org/1999/xlink" version="1.1">
<metadata>
Created by FontForge 20170910 at Mon Apr 30 14:48:42 2007
 By Jimmy Wärting
URW Software, Copyright 1993 by URW
</metadata>
<defs>
<font id="CorporateA-Light" horiz-adv-x="500" >
  <font-face 
    font-family="Corporate A"
    font-weight="300"
    font-stretch="normal"
    units-per-em="1000"
    panose-1="0 0 0 0 0 0 0 0 0 0"
    ascent="800"
    descent="-200"
    x-height="472"
    cap-height="670"
    bbox="-190 -266 858 876"
    underline-thickness="32"
    underline-position="-103"
    stemh="27"
    stemv="63"
    unicode-range="U+0020-FB02"
  />
<missing-glyph horiz-adv-x="250" 
 />
    <glyph glyph-name=".notdef" horiz-adv-x="250" 
 />
    <glyph glyph-name="space" unicode=" " horiz-adv-x="250" 
 />
    <glyph glyph-name="exclam" unicode="!" horiz-adv-x="234" 
d="M96 192l-13 458h68l-12 -458h-43zM118 95c28 0 51 -23 51 -51c0 -29 -23 -52 -51 -52c-29 0 -52 23 -52 51c0 29 23 52 52 52z" />
    <glyph glyph-name="quotedbl" unicode="&#x22;" horiz-adv-x="383" 
d="M149 400h-49l-9 267h67zM282 400h-48l-10 267h67z" />
    <glyph glyph-name="numbersign" unicode="#" horiz-adv-x="609" 
d="M536 263l-8 -47h-113l-34 -216h-54l34 216h-152l-34 -216h-54l35 216h-114l7 47h114l24 153h-113l7 47h114l32 204h54l-32 -204h151l32 204h54l-32 -204h113l-7 -47h-114l-24 -153h114zM393 416h-152l-24 -153h151z" />
    <glyph glyph-name="dollar" unicode="$" horiz-adv-x="516" 
d="M241 17v296c-63 26 -68 28 -88 39c-64 35 -90 78 -90 149c0 99 71 169 178 176v79h31v-79c44 -3 79 -19 111 -51l31 52h11v-175h-17c-23 94 -64 138 -136 146v-276c69 -29 81 -34 103 -48c59 -35 87 -84 87 -150c0 -102 -77 -178 -190 -185v-79h-31v79
c-52 2 -99 22 -137 57l-39 -59h-11v207h18c17 -110 76 -172 169 -178zM272 301v-284c85 9 132 59 132 138c0 56 -22 92 -76 120c-12 7 -23 12 -56 26zM241 386v263c-73 -8 -122 -61 -122 -133c0 -37 13 -67 39 -88c12 -11 35 -22 76 -40z" />
    <glyph glyph-name="percent" unicode="%" horiz-adv-x="584" 
d="M161 673c73 0 123 -64 123 -159s-51 -160 -125 -160c-76 0 -126 64 -126 161c0 93 53 158 128 158zM160 651c-49 0 -77 -50 -77 -137c0 -91 25 -138 75 -138c49 0 76 49 76 138s-26 137 -74 137zM76 0l393 667h38l-393 -667h-38zM428 313c73 0 123 -64 123 -159
s-51 -160 -125 -160c-76 0 -126 64 -126 161c0 93 53 158 128 158zM427 291c-49 0 -77 -50 -77 -137c0 -91 25 -138 75 -138c49 0 76 49 76 137c0 90 -26 138 -74 138z" />
    <glyph glyph-name="ampersand" unicode="&#x26;" horiz-adv-x="577" 
d="M254 361l169 -231c23 32 36 73 36 111c0 26 -12 34 -53 36v25c30 -3 47 -4 72 -4s42 1 72 4v-25c-47 -3 -53 -7 -58 -46c-9 -64 -19 -95 -45 -133l25 -37c28 -43 33 -46 86 -47v-17c-24 3 -37 4 -57 4c-19 0 -33 -1 -57 -4l-38 57c-56 -47 -100 -65 -162 -65
c-118 0 -207 76 -207 178c0 74 38 126 143 198c-4 5 -7 10 -10 15l-27 40c-29 43 -39 70 -39 106c0 75 58 130 136 130c74 0 124 -48 124 -119c0 -55 -26 -96 -110 -176zM224 405c66 57 89 94 89 139c0 51 -32 88 -75 88c-47 0 -81 -38 -81 -88c0 -37 5 -49 57 -124
c1 -3 5 -8 10 -15zM382 83l-175 241c-79 -52 -107 -93 -107 -156c0 -87 60 -148 144 -148c51 0 92 19 138 63z" />
    <glyph glyph-name="quoteright" unicode="&#x2019;" horiz-adv-x="240" 
d="M106 454h-49c40 37 81 105 82 138h-4c-6 -2 -9 -3 -14 -3c-24 0 -41 18 -41 42c0 27 21 47 50 47c33 0 52 -22 52 -58c0 -47 -28 -109 -76 -166z" />
    <glyph glyph-name="parenleft" unicode="(" horiz-adv-x="297" 
d="M207 683h33c-65 -123 -99 -278 -99 -447s34 -322 99 -447h-33c-92 126 -134 268 -134 447c0 180 43 323 134 447z" />
    <glyph glyph-name="parenright" unicode=")" horiz-adv-x="297" 
d="M90 -211h-33c65 125 99 278 99 447s-34 324 -99 447h33c91 -123 134 -267 134 -447c0 -179 -43 -322 -134 -447z" />
    <glyph glyph-name="asterisk" unicode="*" horiz-adv-x="516" 
d="M237 530l-3 120h47l-3 -120l113 40l14 -44l-114 -35l72 -95l-37 -27l-68 98l-68 -98l-38 27l73 95l-115 35l14 44z" />
    <glyph glyph-name="plus" unicode="+" horiz-adv-x="516" 
d="M56 313v50h176v173h52v-173h175v-50h-175v-174h-52v174h-176z" />
    <glyph glyph-name="comma" unicode="," horiz-adv-x="223" 
d="M91 -143h-49c42 40 80 105 82 138h-4c-6 -2 -9 -3 -14 -3c-24 0 -41 18 -41 42c0 27 21 47 50 47c33 0 52 -22 52 -57c0 -48 -26 -104 -76 -167z" />
    <glyph glyph-name="hyphen" unicode="-" horiz-adv-x="253" 
d="M0 252v42h253v-42h-253z" />
    <glyph glyph-name="period" unicode="." horiz-adv-x="217" 
d="M109 89c26 0 48 -22 48 -48c0 -27 -22 -49 -48 -49c-27 0 -49 22 -49 48c0 28 22 49 49 49z" />
    <glyph glyph-name="slash" unicode="/" horiz-adv-x="387" 
d="M-84 -194l418 861h44l-418 -861h-44z" />
    <glyph glyph-name="zero" unicode="0" horiz-adv-x="516" 
d="M260 661c62 0 115 -31 145 -84c36 -62 55 -151 55 -251c0 -89 -15 -169 -44 -230c-31 -68 -87 -104 -158 -104c-128 0 -202 122 -202 336c0 98 21 189 57 249c33 54 85 84 147 84zM257 633c-84 0 -132 -110 -132 -305c0 -197 49 -308 135 -308c85 0 131 107 131 306
c0 196 -48 307 -134 307z" />
    <glyph glyph-name="one" unicode="1" horiz-adv-x="516" 
d="M296 685v-603c0 -51 10 -59 82 -65v-20c-46 5 -65 6 -114 6s-68 -1 -114 -6v20c72 6 82 13 82 65v470h-113v20c80 5 139 48 153 113h24z" />
    <glyph glyph-name="two" unicode="2" horiz-adv-x="516" 
d="M434 54l-6 -54h-363v40c72 88 131 165 176 227c97 136 123 186 123 240c0 64 -46 109 -111 109c-49 0 -95 -25 -119 -65c-13 -23 -19 -43 -25 -84h-27c5 67 15 101 38 131c30 40 83 63 144 63c97 0 169 -63 169 -148c0 -63 -26 -110 -134 -247
c-115 -145 -115 -145 -169 -212h304z" />
    <glyph glyph-name="three" unicode="3" horiz-adv-x="516" 
d="M60 185h30c2 -39 5 -56 14 -79c18 -48 64 -76 125 -76c89 0 146 60 146 153c0 70 -28 120 -79 139c-22 9 -46 13 -94 14v33h9c86 0 140 53 140 137c0 73 -42 117 -113 117c-46 0 -87 -21 -110 -56c-14 -21 -20 -39 -27 -75h-25c11 113 70 170 176 170
c98 0 166 -63 166 -155c0 -74 -43 -125 -126 -149c103 -26 153 -82 153 -172c0 -112 -85 -194 -201 -194c-119 0 -181 65 -184 193z" />
    <glyph glyph-name="four" unicode="4" horiz-adv-x="516" 
d="M295 -18v197h-274l281 488h57v-436h111v-52h-111v-197h-64zM295 231l2 380l-214 -380h212z" />
    <glyph glyph-name="five" unicode="5" horiz-adv-x="516" 
d="M405 596h-244l-36 -201c33 36 71 52 124 52c117 0 194 -88 194 -221c0 -62 -18 -118 -53 -162c-38 -48 -89 -72 -155 -72c-100 0 -153 51 -162 156h28c4 -33 8 -49 20 -67c19 -32 58 -51 102 -51c90 0 151 78 151 195c0 113 -54 183 -141 183c-58 0 -97 -24 -126 -76h-24
l56 321h272z" />
    <glyph glyph-name="six" unicode="6" horiz-adv-x="516" 
d="M369 699h48c-87 -81 -169 -179 -218 -259c28 8 43 11 64 11c113 0 191 -93 191 -226c0 -139 -80 -233 -196 -233c-120 0 -201 92 -201 228c0 104 46 198 160 327c37 41 64 69 111 114c22 21 36 33 41 38zM256 423c-82 0 -128 -70 -128 -198c0 -133 44 -205 126 -205
s127 72 127 204c0 127 -45 199 -125 199z" />
    <glyph glyph-name="seven" unicode="7" horiz-adv-x="516" 
d="M101 0l291 592h-333v61h399l-296 -653h-61z" />
    <glyph glyph-name="eight" unicode="8" horiz-adv-x="516" 
d="M331 341c76 -23 115 -76 115 -159c0 -113 -76 -190 -189 -190c-114 0 -186 73 -186 189c0 79 35 128 114 160c-68 29 -98 74 -98 145c0 104 72 175 175 175c101 0 167 -67 167 -170c0 -70 -32 -119 -98 -150zM261 327c-73 0 -123 -62 -123 -150c0 -95 47 -157 120 -157
c72 0 121 64 121 156s-47 151 -118 151zM261 633c-65 0 -107 -54 -107 -137c0 -90 37 -141 103 -141c64 0 105 54 105 140c0 87 -37 138 -101 138z" />
    <glyph glyph-name="nine" unicode="9" horiz-adv-x="516" 
d="M163 -47h-49c84 84 157 177 204 261c-27 -9 -41 -12 -62 -12c-107 0 -181 94 -181 229c0 137 74 230 184 230c113 0 189 -93 189 -231c0 -102 -42 -195 -145 -323c-42 -51 -62 -73 -140 -154zM261 633c-76 0 -117 -70 -117 -197c0 -132 43 -206 118 -206
c77 0 119 68 119 193c0 136 -42 210 -120 210z" />
    <glyph glyph-name="colon" unicode=":" horiz-adv-x="217" 
d="M109 89c26 0 48 -22 48 -48c0 -27 -22 -49 -48 -49c-27 0 -49 22 -49 48c0 28 22 49 49 49zM109 428c27 0 48 -22 48 -48c0 -27 -22 -49 -48 -49c-27 0 -49 22 -49 49s22 48 49 48z" />
    <glyph glyph-name="semicolon" unicode=";" horiz-adv-x="223" 
d="M115 428c27 0 48 -22 48 -48c0 -27 -22 -49 -48 -49c-27 0 -49 22 -49 49s22 48 49 48zM91 -143h-49c42 40 80 105 82 138h-4c-6 -2 -9 -3 -14 -3c-24 0 -41 18 -41 42c0 27 21 47 50 47c33 0 52 -22 52 -57c0 -48 -26 -104 -76 -167z" />
    <glyph glyph-name="less" unicode="&#x3c;" 
d="M455 606v-29l-332 -218l332 -221v-78l-411 273v6z" />
    <glyph glyph-name="equal" unicode="=" horiz-adv-x="516" 
d="M56 374v52h403v-52h-403zM56 249v52h403v-52h-403z" />
    <glyph glyph-name="greater" unicode="&#x3e;" 
d="M44 60v30l332 217l-332 221v78l411 -273v-6z" />
    <glyph glyph-name="question" unicode="?" horiz-adv-x="365" 
d="M174 180h-41c-5 28 -6 42 -6 58c0 34 7 65 22 91c13 24 15 26 68 76c42 40 61 75 61 112c0 54 -37 90 -93 90c-71 0 -118 -45 -125 -120h-22c0 40 4 60 16 85c26 52 83 84 150 84c82 0 140 -57 140 -138c0 -28 -8 -57 -23 -81s-20 -29 -72 -72c-57 -48 -78 -87 -78 -147
c0 -13 1 -21 3 -38zM162 95c28 0 51 -23 51 -51c0 -29 -23 -52 -51 -52c-29 0 -52 23 -52 51c0 29 23 52 52 52z" />
    <glyph glyph-name="at" unicode="@" horiz-adv-x="701" 
d="M632 174h41c-32 -57 -53 -83 -98 -116c-62 -46 -127 -68 -201 -68c-200 0 -352 146 -352 339c0 195 152 348 347 348c86 0 166 -30 227 -85c55 -50 83 -116 83 -194c0 -72 -24 -134 -70 -183c-43 -47 -100 -77 -146 -77s-68 21 -75 73c-39 -49 -68 -67 -112 -67
c-73 0 -127 58 -127 137c0 114 98 218 206 218c45 0 71 -24 84 -77l18 68h60l-69 -260c-7 -22 -7 -24 -7 -33c0 -22 15 -38 35 -38c34 0 84 34 116 81c31 44 50 105 50 159c0 134 -122 241 -273 241c-175 0 -308 -133 -308 -309c0 -175 135 -304 318 -304
c61 0 110 15 162 51c40 27 60 48 91 96zM361 479c-71 3 -151 -112 -151 -218c0 -57 31 -97 75 -97c42 0 77 34 106 102c18 42 31 100 31 135c0 50 -20 76 -61 78z" />
    <glyph glyph-name="A" unicode="A" horiz-adv-x="629" 
d="M415 198h-238l-36 -103c-9 -26 -12 -39 -12 -47c0 -21 16 -29 64 -31v-20c-40 5 -62 6 -91 6c-30 0 -52 -1 -92 -6v20c60 4 71 11 88 59l230 611l201 -615c15 -43 26 -50 90 -55v-20c-49 6 -75 8 -111 8s-62 -2 -111 -8v20c43 4 61 13 61 31c0 5 -4 26 -6 32zM187 226
h219l-101 323z" />
    <glyph glyph-name="B" unicode="B" horiz-adv-x="559" 
d="M34 667h252c63 0 103 -11 135 -38c36 -29 56 -74 56 -124c0 -69 -37 -121 -107 -150c90 -21 138 -78 138 -164c0 -59 -29 -118 -74 -152c-39 -29 -79 -39 -155 -39h-245v19c72 6 82 14 82 66v498c0 51 -10 59 -82 65v19zM183 363h74c60 0 87 8 112 34c24 25 36 60 36 106
c0 43 -10 79 -29 101c-20 25 -50 35 -100 35h-93v-276zM183 335v-252c0 -47 10 -55 68 -55h37c92 0 148 60 148 159c0 47 -14 89 -39 114c-23 24 -56 34 -109 34h-105z" />
    <glyph glyph-name="C" unicode="C" horiz-adv-x="584" 
d="M484 220h37c-7 -146 -84 -231 -211 -231c-76 0 -147 36 -189 96c-45 64 -70 153 -70 251c0 101 27 190 77 255c42 56 108 87 184 87c63 0 107 -16 149 -55l36 52h17v-184h-19c-28 109 -84 160 -176 160c-125 0 -196 -115 -196 -317c0 -196 72 -312 193 -312
c63 0 117 34 144 90c15 33 21 60 24 108z" />
    <glyph glyph-name="D" unicode="D" horiz-adv-x="627" 
d="M111 85v498c0 51 -10 59 -82 65v19h231c98 0 154 -17 205 -62c70 -63 112 -164 112 -272s-42 -211 -111 -270c-50 -43 -111 -63 -195 -63h-242v19c72 6 82 14 82 66zM178 639v-558c0 -49 8 -55 72 -55c171 0 255 101 255 307c0 106 -24 189 -72 243
c-38 44 -89 63 -168 63h-87z" />
    <glyph glyph-name="E" unicode="E" horiz-adv-x="528" 
d="M477 152l-19 -152h-424v19c72 6 82 14 82 66v498c0 51 -10 59 -82 65v19h419l14 -141h-19c-25 92 -46 113 -112 113h-153v-278h155c44 0 55 16 58 82h20v-193h-20c-2 61 -17 83 -58 83h-155v-243c0 -49 15 -62 70 -62h78c59 0 78 9 98 44c12 21 21 45 29 80h19z" />
    <glyph glyph-name="F" unicode="F" horiz-adv-x="507" 
d="M189 333v-251c0 -52 10 -59 82 -65v-20c-59 6 -85 8 -115 8c-31 0 -57 -2 -116 -8v20c72 6 82 14 82 65v501c0 51 -10 59 -82 65v19h419l14 -141h-19c-25 92 -46 113 -112 113h-153v-278h155c44 0 55 16 58 82h20v-193h-20c-2 61 -17 83 -58 83h-155z" />
    <glyph glyph-name="G" unicode="G" horiz-adv-x="619" 
d="M519 678v-187h-19c-14 43 -22 62 -38 86c-30 46 -82 73 -141 73c-128 0 -198 -111 -198 -315c0 -205 70 -318 196 -318c47 0 90 12 145 42v168c0 34 -15 42 -79 47v19c53 -5 78 -6 106 -6c29 0 54 1 107 6v-19c-68 -6 -73 -9 -73 -49v-169c-82 -47 -145 -67 -213 -67
c-159 0 -261 136 -261 349c0 208 101 340 261 340c59 0 102 -15 148 -53l42 53h17z" />
    <glyph glyph-name="H" unicode="H" horiz-adv-x="664" 
d="M183 362h298v223c0 51 -11 60 -82 65v20c58 -6 84 -8 116 -8c31 0 57 2 115 8v-20c-71 -5 -82 -13 -82 -65v-503c0 -52 10 -59 82 -65v-20c-59 6 -85 8 -115 8c-31 0 -57 -2 -116 -8v20c72 6 82 14 82 65v252h-298v-252c0 -52 10 -59 82 -65v-20c-59 6 -85 8 -115 8
c-31 0 -57 -2 -116 -8v20c72 6 82 14 82 65v503c0 51 -11 60 -82 65v20c58 -6 84 -8 116 -8c30 0 57 2 115 8v-20c-71 -5 -82 -13 -82 -65v-223z" />
    <glyph glyph-name="I" unicode="I" horiz-adv-x="298" 
d="M116 82v503c0 51 -11 60 -82 65v20c58 -6 84 -8 116 -8c31 0 57 2 115 8v-20c-71 -5 -82 -13 -82 -65v-503c0 -52 10 -59 82 -65v-20c-59 6 -85 8 -115 8c-31 0 -57 -2 -116 -8v20c72 6 82 14 82 65z" />
    <glyph glyph-name="J" unicode="J" horiz-adv-x="296" 
d="M-3 -68v24h11c38 0 65 8 82 23c20 18 26 43 26 103v503c0 39 -3 46 -24 54c-15 7 -28 9 -58 11v20c58 -6 85 -8 115 -8c32 0 58 2 116 8v-20c-30 -2 -43 -4 -58 -11c-21 -8 -24 -15 -24 -54v-473c0 -72 -8 -101 -34 -132c-29 -32 -71 -49 -125 -49c-6 0 -16 0 -27 1z" />
    <glyph glyph-name="K" unicode="K" horiz-adv-x="615" 
d="M180 355l229 253c9 10 13 17 13 22c0 14 -11 18 -61 20v20c43 -4 67 -5 100 -5c32 0 56 1 99 5v-20c-62 -2 -83 -11 -118 -50l-188 -210l234 -314c31 -43 55 -56 114 -59v-20c-54 6 -83 8 -122 8c-40 0 -69 -2 -122 -8v20c58 5 70 10 70 26c0 8 -3 13 -19 36l-196 273
l-34 -38v-232c0 -52 10 -59 82 -65v-20c-53 6 -78 8 -110 8s-58 -2 -117 -8v20c72 6 82 14 82 65v503c0 51 -11 60 -82 65v20c58 -6 84 -8 116 -8c33 0 58 2 112 8v-20c-71 -5 -82 -13 -82 -65v-230z" />
    <glyph glyph-name="L" unicode="L" horiz-adv-x="488" 
d="M478 152l-19 -152h-425v19c72 6 82 14 82 66v500c0 51 -11 60 -82 65v20c58 -6 84 -8 116 -8c31 0 57 2 115 8v-20c-71 -5 -82 -13 -82 -65v-491c0 -49 15 -62 70 -62h79c58 0 77 8 98 43c11 20 20 43 29 77h19z" />
    <glyph glyph-name="M" unicode="M" horiz-adv-x="797" 
d="M172 614l-24 -533v-8c0 -41 14 -51 82 -57v-19c-50 4 -73 5 -98 5c-26 0 -48 -1 -98 -5v19c68 6 78 14 82 65l25 504v8c0 42 -15 52 -82 57v20c34 -3 49 -4 71 -4c31 0 54 1 86 5l188 -532l191 532c46 -4 63 -5 88 -5c19 0 36 1 69 4v-20c-66 -5 -82 -15 -82 -56v-9
l11 -504c1 -49 13 -59 82 -65v-19c-57 6 -83 8 -115 8s-58 -2 -115 -8v20c63 3 82 16 82 56v9l-9 532l-212 -595h-13z" />
    <glyph glyph-name="N" unicode="N" horiz-adv-x="665" 
d="M552 -22h-11l-393 618v-514c0 -39 3 -46 24 -54c15 -6 27 -9 58 -11v-20c-61 5 -80 6 -101 6s-42 -1 -95 -6v20c30 2 43 5 58 11c21 8 24 15 24 54v542c-15 19 -31 23 -83 26v20c31 -3 49 -4 77 -4c26 0 40 1 67 4l343 -534v449c0 39 -3 46 -24 54c-15 7 -28 9 -58 11v20
c61 -4 80 -5 101 -5c22 0 42 1 95 5v-20c-29 -2 -43 -4 -58 -11c-21 -8 -24 -15 -24 -54v-607z" />
    <glyph glyph-name="O" unicode="O" horiz-adv-x="618" 
d="M309 678c159 0 259 -135 259 -348c0 -204 -102 -341 -256 -341c-159 0 -261 136 -261 347c0 207 102 342 258 342zM309 651c-116 0 -186 -119 -186 -316s72 -319 190 -319c114 0 183 119 183 315c0 201 -70 320 -187 320z" />
    <glyph glyph-name="P" unicode="P" horiz-adv-x="528" 
d="M183 307v-225c0 -52 10 -59 82 -65v-20c-59 6 -85 8 -115 8c-31 0 -57 -2 -116 -8v20c72 6 82 14 82 65v501c0 51 -10 59 -82 65v19h253c68 0 109 -10 144 -36c42 -32 69 -89 69 -147c0 -59 -25 -108 -71 -141c-36 -25 -76 -36 -134 -36h-112zM183 335h94
c47 0 79 9 103 28c34 26 53 72 53 127c0 47 -14 88 -39 114c-24 25 -55 35 -110 35h-101v-304z" />
    <glyph glyph-name="Q" unicode="Q" horiz-adv-x="618" 
d="M621 9v-20h-20c-52 0 -78 12 -131 61c-42 -41 -93 -61 -157 -61c-160 0 -262 136 -262 348c0 206 102 341 258 341c157 0 259 -136 259 -345c0 -89 -18 -165 -55 -228c45 -69 79 -99 108 -96zM309 651c-116 0 -186 -118 -186 -315c0 -198 73 -320 190 -320
c114 0 183 119 183 314c0 201 -70 321 -187 321z" />
    <glyph glyph-name="R" unicode="R" horiz-adv-x="579" 
d="M183 323v-241c0 -52 10 -59 82 -65v-20c-59 6 -85 8 -115 8c-31 0 -57 -2 -116 -8v20c72 6 82 14 82 65v501c0 51 -10 59 -82 65v19h258c58 0 98 -10 131 -32c45 -30 74 -85 74 -141c0 -90 -66 -157 -165 -169c39 -10 59 -29 82 -82l74 -173c20 -45 30 -52 81 -53v-20
c-28 2 -42 3 -59 3s-32 -1 -59 -3l-106 247c-29 66 -49 79 -119 79h-43zM183 351h95c98 0 152 52 152 148c0 93 -50 140 -147 140h-100v-288z" />
    <glyph glyph-name="S" unicode="S" horiz-adv-x="506" 
d="M59 195h19c20 -118 78 -175 177 -175c84 0 142 56 142 138c0 53 -20 83 -74 114c-12 7 -12 7 -113 57c-112 57 -140 91 -140 172c0 104 73 174 183 174c52 0 86 -13 123 -49l28 52h17v-175h-19c-27 102 -70 145 -146 145c-73 0 -131 -57 -131 -129c0 -41 19 -71 60 -96
c25 -16 26 -16 99 -52c75 -37 90 -45 116 -66c36 -29 55 -72 55 -126c0 -112 -79 -187 -195 -187c-61 0 -105 16 -150 55l-35 -59h-16v207z" />
    <glyph glyph-name="T" unicode="T" horiz-adv-x="508" 
d="M284 639v-557c0 -39 3 -46 24 -54c15 -6 27 -9 58 -11v-20c-59 6 -85 8 -115 8c-31 0 -57 -2 -116 -8v20c31 2 43 5 58 11c21 8 24 15 24 54v557h-63c-67 0 -85 -18 -116 -113h-20l25 141h420l26 -141h-20c-28 95 -46 113 -110 113h-75z" />
    <glyph glyph-name="U" unicode="U" horiz-adv-x="654" 
d="M544 585v-381c0 -64 -8 -98 -31 -132c-37 -54 -102 -83 -186 -83c-72 0 -130 22 -170 65c-34 36 -46 73 -46 143v388c0 51 -11 60 -82 65v20c58 -6 84 -8 116 -8c30 0 57 2 115 8v-20c-71 -5 -82 -13 -82 -65v-390c0 -68 7 -93 33 -121c30 -30 74 -46 130 -46
c66 0 120 24 147 64c16 24 24 57 24 101v392c0 52 -11 60 -82 65v20c61 -4 80 -5 101 -5c22 0 42 1 95 5v-20c-71 -5 -82 -14 -82 -65z" />
    <glyph glyph-name="V" unicode="V" horiz-adv-x="632" 
d="M325 -11h-24l-199 605c-15 45 -26 52 -92 56v20c45 -6 71 -8 111 -8s66 2 111 8v-20c-46 -3 -66 -12 -66 -30c0 -6 0 -6 6 -24l161 -490l161 474c6 17 9 31 9 39c0 20 -17 28 -67 31v20c37 -5 58 -7 89 -7c30 0 53 2 97 7v-20c-57 -3 -76 -13 -86 -43z" />
    <glyph glyph-name="W" unicode="W" horiz-adv-x="860" 
d="M275 -11h-17l-162 612c-9 36 -26 47 -78 49v20c44 -6 68 -8 106 -8c37 0 62 2 106 8v-20c-48 -3 -66 -11 -66 -29c0 -4 2 -15 4 -23l120 -454l149 534h23l147 -534l122 453c2 8 4 21 4 26c0 18 -16 25 -62 27v20c37 -5 57 -6 85 -6s48 1 85 6v-20c-53 -2 -69 -11 -77 -43
l-169 -616h-17l-149 556z" />
    <glyph glyph-name="X" unicode="X" horiz-adv-x="605" 
d="M10 -3v20c55 1 75 15 112 76l153 251l-134 250c-22 44 -36 52 -97 56v20c47 -5 73 -7 113 -7c41 0 67 2 114 7v-20c-51 -4 -67 -11 -67 -28c0 -5 5 -18 10 -28l100 -186l117 192c6 10 9 17 9 24c0 18 -13 24 -63 26v20c37 -5 59 -6 95 -6c35 0 57 1 94 6v-20
c-59 -5 -75 -13 -96 -47l-139 -227l162 -305c24 -44 36 -51 97 -54v-20c-55 5 -83 7 -117 7c-36 0 -63 -2 -116 -7v20c59 5 70 10 70 30c0 7 -3 17 -11 31l-124 234l-145 -240c-8 -13 -11 -21 -11 -28c0 -20 14 -25 65 -27v-20c-41 4 -64 5 -95 5c-32 0 -55 -1 -96 -5z" />
    <glyph glyph-name="Y" unicode="Y" horiz-adv-x="579" 
d="M258 292l-155 308c-19 39 -31 46 -90 50v20c52 -5 79 -7 114 -7s62 2 114 7v-20c-53 -2 -72 -10 -72 -26c0 -7 1 -9 10 -27l134 -267l136 272c4 7 7 17 7 22c0 17 -16 23 -70 26v20c41 -5 64 -6 91 -6c28 0 51 1 92 6v-20c-57 -6 -70 -13 -90 -50l-154 -308v-210
c0 -38 3 -46 24 -54c15 -6 27 -9 58 -11v-20c-58 6 -84 8 -115 8s-57 -2 -116 -8v20c31 2 43 5 58 11c21 8 24 15 24 54v210z" />
    <glyph glyph-name="Z" unicode="Z" horiz-adv-x="524" 
d="M34 0l370 639h-195c-68 0 -95 -26 -113 -109h-22l25 137h396l-370 -639h203c63 0 79 6 103 41c13 18 24 42 39 80h20l-29 -149h-427z" />
    <glyph glyph-name="bracketleft" unicode="[" horiz-adv-x="297" 
d="M269 637h-99v-801h99v-30h-161v861h161v-30z" />
    <glyph glyph-name="backslash" unicode="\" horiz-adv-x="387" 
d="M472 -194h-44l-418 861h44z" />
    <glyph glyph-name="bracketright" unicode="]" horiz-adv-x="297" 
d="M28 -164h99v801h-99v30h161v-861h-161v30z" />
    <glyph glyph-name="asciicircum" unicode="^" 
d="M523 289h-30l-218 332l-220 -333h-78l273 412h6z" />
    <glyph glyph-name="underscore" unicode="_" 
d="M27 -87h445v-32h-445v32z" />
    <glyph glyph-name="quoteleft" unicode="&#x2018;" horiz-adv-x="240" 
d="M132 671h50c-41 -37 -81 -105 -82 -138h3c6 2 9 3 15 3c23 0 40 -18 40 -42c0 -27 -21 -47 -50 -47c-32 0 -51 22 -51 57c0 48 28 110 75 167z" />
    <glyph glyph-name="a" unicode="a" horiz-adv-x="452" 
d="M430 25v-26c-24 -4 -33 -5 -49 -5c-44 0 -63 23 -69 84c-36 -64 -70 -86 -133 -86c-81 0 -137 53 -137 128c0 61 36 104 114 137c47 20 88 30 146 38v56c0 40 -5 60 -17 76c-15 18 -40 28 -69 28c-34 0 -69 -14 -83 -34c-7 -10 -7 -13 -7 -44c0 -30 -11 -43 -36 -43
c-18 0 -28 10 -28 29c0 62 74 117 157 117c52 0 101 -22 124 -57c15 -21 21 -47 21 -88v-215c0 -74 10 -98 41 -98c7 0 12 1 25 3zM302 186v84c-134 -23 -196 -70 -196 -149c0 -56 33 -90 88 -90c76 0 108 47 108 155z" />
    <glyph glyph-name="b" unicode="b" horiz-adv-x="494" 
d="M82 -11v595c0 48 -7 54 -71 54v14c49 5 95 13 133 23v-284c33 63 70 89 128 89c107 0 180 -100 180 -245c0 -144 -74 -243 -182 -243c-59 0 -100 28 -130 87l-34 -90h-24zM266 452c-79 0 -123 -80 -123 -222c0 -61 7 -106 23 -142c17 -41 56 -68 97 -68
c78 0 122 78 122 215c0 142 -41 217 -119 217z" />
    <glyph glyph-name="c" unicode="c" horiz-adv-x="424" 
d="M370 492v-156h-19c-8 33 -13 48 -24 68c-20 33 -55 54 -91 54c-77 0 -123 -84 -123 -226c0 -140 40 -211 120 -211c62 0 97 42 109 133h40c-12 -105 -66 -164 -153 -164c-112 0 -187 97 -187 242c0 150 76 251 190 251c40 0 66 -11 96 -41l25 50h17z" />
    <glyph glyph-name="d" unicode="d" horiz-adv-x="499" 
d="M475 29v-14c-67 -8 -83 -11 -118 -23c-6 27 -10 55 -11 87c-28 -59 -69 -87 -127 -87c-104 0 -177 100 -177 243c0 145 72 245 176 245c56 0 92 -25 124 -89v193c0 48 -7 54 -71 54v14c49 5 95 13 133 23v-577c0 -41 3 -53 16 -61c11 -6 14 -6 55 -8zM224 452
c-76 0 -115 -74 -115 -217c0 -137 43 -215 118 -215c74 0 116 74 116 205c0 147 -42 227 -119 227z" />
    <glyph glyph-name="e" unicode="e" horiz-adv-x="450" 
d="M367 155h40c-10 -104 -72 -165 -168 -165c-127 0 -197 86 -197 242c0 155 72 251 189 251c114 0 176 -81 175 -231h-302c0 -157 44 -231 136 -231c72 0 116 46 127 134zM107 288h237c-6 113 -44 170 -114 170c-67 0 -111 -60 -123 -170z" />
    <glyph glyph-name="f" unicode="f" horiz-adv-x="284" 
d="M165 472h115v-36h-115v-371c0 -40 12 -48 72 -51v-17c-51 5 -74 6 -103 6s-52 -1 -103 -6v17c60 3 72 11 72 51v371h-68v29c64 2 72 9 73 61c1 55 8 81 25 104c22 30 62 48 107 48c51 0 88 -29 88 -68c0 -21 -12 -34 -34 -34c-18 0 -31 12 -31 28l1 12c1 4 1 7 1 10
c0 17 -12 28 -32 28c-26 0 -49 -17 -60 -45c-6 -16 -8 -38 -8 -81v-56z" />
    <glyph glyph-name="g" unicode="g" horiz-adv-x="488" 
d="M346 455h132v-36l-99 4c17 -28 23 -51 23 -82c0 -58 -28 -105 -78 -131c-27 -13 -34 -16 -121 -42c-56 -17 -71 -27 -71 -45c0 -15 9 -24 30 -28c7 -1 25 -3 57 -6c95 -7 115 -10 148 -23c54 -20 83 -58 83 -109c0 -91 -84 -152 -210 -152c-124 0 -209 58 -209 143
c0 53 33 88 106 112c-38 12 -54 28 -54 53c0 36 33 58 112 76c-80 21 -122 71 -122 145c0 90 66 146 172 146c40 0 71 -8 101 -25zM240 456c-66 0 -106 -46 -106 -121s40 -123 104 -123c63 0 103 48 103 124c0 77 -37 120 -101 120zM239 30c-103 0 -170 -37 -170 -94
c0 -59 71 -103 168 -103c101 0 165 40 165 105c0 59 -59 92 -163 92z" />
    <glyph glyph-name="h" unicode="h" horiz-adv-x="521" 
d="M24 638v14c48 5 96 13 133 23v-265c32 47 74 70 126 70c51 0 97 -24 122 -65c15 -24 22 -59 22 -106v-244c0 -40 12 -48 72 -51v-17c-50 5 -74 6 -104 6s-53 -1 -103 -6v17c61 2 73 11 73 51v242c0 49 -5 74 -18 94c-16 24 -43 37 -77 37c-37 0 -71 -17 -92 -45
c-15 -21 -21 -45 -21 -90v-238c0 -40 12 -48 72 -51v-17c-51 5 -74 6 -103 6s-53 -1 -103 -6v17c60 3 72 11 72 51v519c0 48 -7 54 -71 54z" />
    <glyph glyph-name="i" unicode="i" horiz-adv-x="263" 
d="M165 489v-424c0 -40 12 -48 72 -51v-17c-51 5 -74 6 -103 6s-53 -1 -103 -6v17c60 3 72 11 72 51v333c0 48 -6 53 -71 54v14c50 4 95 12 133 23zM137 660c26 0 47 -21 47 -47s-21 -47 -48 -47c-25 0 -46 21 -46 47s21 47 47 47z" />
    <glyph glyph-name="j" unicode="j" horiz-adv-x="258" 
d="M162 489v-477c0 -78 -15 -129 -49 -166c-31 -34 -70 -48 -137 -50v21c90 18 124 60 124 157v424c0 48 -6 53 -71 54v14c50 5 94 12 133 23zM127 660c26 0 47 -21 47 -47s-21 -47 -48 -47c-25 0 -46 21 -46 47s21 47 47 47z" />
    <glyph glyph-name="k" unicode="k" horiz-adv-x="510" 
d="M157 231l175 182c11 10 14 16 14 22c0 14 -17 22 -52 23v17c40 -4 61 -5 89 -5c27 0 49 1 88 5v-17c-50 -4 -64 -10 -96 -44l-103 -106l147 -246c23 -39 35 -46 88 -48v-17c-40 5 -62 6 -93 6c-30 0 -53 -1 -93 -6v17c32 1 42 5 42 17c0 6 -2 11 -9 23l-124 214l-73 -74
v-129c0 -40 12 -48 72 -51v-17c-51 5 -74 6 -103 6s-53 -1 -103 -6v17c60 3 72 11 72 51v519c0 48 -7 54 -71 54v14c48 5 96 13 133 23v-444z" />
    <glyph glyph-name="l" unicode="l" horiz-adv-x="260" 
d="M165 675v-610c0 -40 12 -48 72 -51v-17c-51 5 -74 6 -103 6s-53 -1 -103 -6v17c60 3 72 11 72 51v519c0 48 -7 54 -71 54v14c49 5 96 13 133 23z" />
    <glyph glyph-name="m" unicode="m" horiz-adv-x="777" 
d="M33 448v14c47 7 86 16 120 30c4 -24 6 -64 7 -87c36 54 74 75 133 75c60 0 96 -23 119 -77c37 55 76 77 137 77c56 0 99 -23 118 -62c10 -20 15 -54 15 -98v-255c0 -40 12 -48 72 -51v-17c-51 5 -74 6 -103 6s-53 -1 -103 -6v17c60 3 72 11 72 51v257
c0 85 -24 116 -88 116c-71 0 -109 -44 -109 -127v-246c0 -40 12 -48 72 -51v-17c-50 5 -74 6 -103 6s-53 -1 -102 -6v17c60 3 71 11 71 51v255c0 85 -24 118 -85 118c-39 0 -75 -19 -93 -51c-13 -21 -18 -47 -18 -91v-231c0 -40 12 -48 72 -51v-17c-51 5 -74 6 -103 6
s-53 -1 -103 -6v17c60 3 72 11 72 51v324c0 37 -1 43 -8 50c-8 7 -15 7 -62 9z" />
    <glyph glyph-name="n" unicode="n" horiz-adv-x="530" 
d="M33 448v14c47 7 86 16 120 30c4 -26 5 -39 7 -89c35 53 76 77 131 77c51 0 97 -24 122 -65c15 -24 22 -59 22 -106v-244c0 -40 12 -48 72 -51v-17c-50 5 -74 6 -104 6s-53 -1 -103 -6v17c61 2 73 11 73 51v242c0 49 -5 74 -18 94c-16 24 -43 37 -77 37
c-37 0 -71 -17 -92 -45c-15 -21 -21 -45 -21 -90v-238c0 -40 12 -48 72 -51v-17c-50 5 -74 6 -103 6s-53 -1 -103 -6v17c60 3 72 11 72 51v324c0 37 -1 43 -8 50c-8 7 -15 7 -62 9z" />
    <glyph glyph-name="o" unicode="o" horiz-adv-x="456" 
d="M231 483c110 0 182 -99 182 -249c0 -143 -77 -244 -186 -244c-110 0 -185 99 -185 246s77 247 189 247zM229 458c-77 0 -120 -80 -120 -223c0 -144 40 -220 117 -220s120 79 120 219c0 147 -40 224 -117 224z" />
    <glyph glyph-name="p" unicode="p" horiz-adv-x="510" 
d="M27 454v14c66 5 84 8 118 15c6 -22 8 -43 11 -90c30 59 72 87 131 87c107 0 181 -99 181 -243c0 -145 -73 -245 -180 -245c-58 0 -95 26 -128 89v-214c0 -40 10 -48 71 -51v-17c-50 5 -73 6 -102 6c-28 0 -52 -1 -103 -6v17c61 3 72 11 72 51v531c0 44 -11 54 -56 56h-15
zM279 452c-77 0 -120 -73 -120 -206c0 -147 43 -226 123 -226c78 0 119 75 119 217c0 137 -44 215 -122 215z" />
    <glyph glyph-name="q" unicode="q" horiz-adv-x="510" 
d="M350 -133v214c-33 -63 -70 -89 -128 -89c-107 0 -180 100 -180 245c0 144 74 243 181 243c59 0 101 -28 131 -87c3 47 5 68 11 90c34 -7 53 -10 118 -15v-14h-15c-45 -2 -56 -12 -56 -56v-531c0 -40 11 -48 72 -51v-17c-51 5 -75 6 -103 6c-29 0 -52 -1 -102 -6v17
c61 3 71 11 71 51zM231 452c-78 0 -122 -77 -122 -215c0 -143 41 -217 119 -217c79 0 123 80 123 222c0 61 -7 107 -23 142c-18 41 -56 68 -97 68z" />
    <glyph glyph-name="r" unicode="r" horiz-adv-x="360" 
d="M33 452v14c45 4 87 13 120 23c4 -35 5 -45 6 -57c0 -9 1 -17 2 -41c17 57 61 92 114 92c48 0 83 -31 83 -75c0 -29 -15 -47 -39 -47c-21 0 -37 14 -37 33c0 4 0 4 4 18c1 2 1 5 1 7c0 14 -13 24 -32 24c-54 0 -90 -70 -90 -177v-201c0 -40 12 -48 72 -51v-17
c-50 5 -74 6 -103 6s-53 -1 -103 -6v17c60 3 72 11 72 51v324c0 60 -1 61 -70 63z" />
    <glyph glyph-name="s" unicode="s" horiz-adv-x="417" 
d="M51 -10v162h19c8 -34 13 -51 24 -70c20 -39 63 -63 110 -63c63 0 110 41 110 95c0 34 -15 53 -56 74c-10 5 -10 5 -100 42c-75 31 -97 58 -97 119c0 77 60 131 144 131c36 0 63 -8 98 -29l14 37h17v-151h-19c-9 80 -43 118 -106 118c-55 0 -98 -38 -98 -88
c0 -33 15 -53 56 -73c15 -7 22 -11 97 -41c76 -31 102 -61 102 -120c0 -82 -67 -142 -157 -142c-43 0 -82 13 -119 39l-22 -40h-17z" />
    <glyph glyph-name="t" unicode="t" horiz-adv-x="299" 
d="M286 44v-26c-33 -19 -58 -27 -90 -27c-73 0 -104 38 -104 129l1 40l3 276h-67v29c61 2 90 42 108 148h21v-141h122v-36h-122v-289c0 -91 15 -120 63 -120c19 0 37 5 65 17z" />
    <glyph glyph-name="u" unicode="u" horiz-adv-x="519" 
d="M17 452v14c50 5 93 12 133 23v-330c0 -89 27 -124 97 -124c77 0 112 45 112 142v221c0 48 -6 53 -71 54v14c50 5 94 12 133 23v-411c0 -45 5 -49 74 -49v-14c-50 -4 -89 -12 -125 -23c-2 17 -3 37 -4 91c-33 -65 -72 -91 -134 -91c-52 0 -97 22 -121 59
c-16 23 -23 57 -23 107v240c0 48 -6 53 -71 54z" />
    <glyph glyph-name="v" unicode="v" horiz-adv-x="474" 
d="M223 -11l-148 423c-13 37 -25 44 -78 46v17c54 -4 77 -5 99 -5c29 0 47 1 92 5v-17c-43 -2 -54 -7 -54 -25c0 -5 1 -10 5 -20l115 -329l115 326c8 20 8 22 8 28c0 14 -7 17 -50 20v17c49 -4 63 -5 77 -5c12 0 29 1 72 5v-17c-49 -2 -61 -10 -75 -49l-150 -420h-28z" />
    <glyph glyph-name="w" unicode="w" horiz-adv-x="691" 
d="M346 376l-121 -387h-28l-121 423c-11 38 -19 44 -67 46v17c41 -4 63 -5 92 -5s52 1 93 5v-17c-43 -1 -59 -8 -59 -23c0 -4 1 -9 4 -19l88 -313l120 380h28l119 -383l91 313c4 13 5 18 5 23c0 16 -11 20 -56 22v17c37 -3 56 -4 82 -4c27 0 43 1 72 4v-17
c-46 0 -61 -9 -71 -40l-124 -429h-28z" />
    <glyph glyph-name="x" unicode="x" horiz-adv-x="499" 
d="M221 240l-103 178c-17 31 -32 39 -80 40v17c46 -4 69 -5 95 -5c27 0 49 1 95 5v-17c-33 -1 -46 -7 -46 -20c0 -5 1 -7 8 -20l70 -122l78 115c9 13 12 20 12 27c0 14 -13 19 -52 20v17c38 -3 58 -4 81 -4c24 0 44 1 82 4v-17c-50 -1 -63 -7 -87 -42l-99 -146l121 -209
c23 -41 33 -46 87 -47v-17c-47 5 -71 6 -100 6c-30 0 -54 -1 -101 -6v17c41 2 53 7 53 22c0 5 0 6 -10 23l-89 154l-95 -142c-14 -21 -16 -25 -16 -33c0 -17 12 -22 58 -24v-17c-52 4 -64 5 -84 5s-31 -1 -83 -5v17c48 2 61 9 88 52z" />
    <glyph glyph-name="y" unicode="y" horiz-adv-x="486" 
d="M228 17l-147 402c-11 32 -20 37 -74 39v17c41 -4 64 -5 93 -5s51 1 92 5v-17c-39 -2 -52 -8 -52 -21c0 -5 0 -5 7 -26l113 -309l116 308c4 13 6 19 6 25c0 16 -13 21 -58 23v17c28 -3 43 -4 72 -4c30 0 50 1 88 4v-17c-51 -5 -64 -13 -74 -40l-187 -501
c-31 -83 -71 -113 -147 -111v48c64 1 97 25 123 90z" />
    <glyph glyph-name="z" unicode="z" horiz-adv-x="441" 
d="M37 0l281 449h-129c-63 0 -75 -12 -111 -100h-17l22 123h321l-282 -449h135c50 0 67 9 91 46c13 19 21 37 30 67h17l-24 -136h-334z" />
    <glyph glyph-name="braceleft" unicode="{" horiz-adv-x="297" 
d="M178 601v-256c0 -54 -12 -74 -58 -97c46 -24 58 -44 58 -97v-279c0 -46 20 -72 63 -83c-52 0 -62 1 -84 14c-28 15 -40 43 -40 93v273c0 46 -17 68 -62 79c45 11 62 32 62 79v249c0 50 12 78 40 94c22 12 32 14 84 14c-43 -12 -63 -38 -63 -83z" />
    <glyph glyph-name="bar" unicode="|" 
d="M231 667h39v-834h-39v834z" />
    <glyph glyph-name="braceright" unicode="}" horiz-adv-x="297" 
d="M118 -128v279c0 54 11 73 58 97c-46 23 -58 43 -58 97v256c0 45 -20 71 -63 83c52 0 62 -2 84 -14c28 -16 40 -43 40 -94v-249c0 -47 17 -68 62 -79c-45 -11 -62 -33 -62 -79v-273c0 -50 -12 -78 -40 -93c-22 -13 -32 -14 -84 -14c43 11 63 37 63 83z" />
    <glyph glyph-name="asciitilde" unicode="~" horiz-adv-x="667" 
d="M537 734l11 -8c-31 -51 -89 -90 -136 -90c-18 0 -30 3 -67 15c-65 21 -92 27 -119 27c-37 0 -53 -11 -95 -61l-12 7c40 60 89 92 140 92c23 0 42 -5 93 -22c42 -14 60 -18 80 -18c39 0 74 19 105 58z" />
    <glyph glyph-name="exclamdown" unicode="&#xa1;" horiz-adv-x="234" 
d="M138 281l13 -459h-67l12 459h42zM117 481c29 0 52 -23 52 -51c0 -29 -23 -52 -52 -52c-28 0 -51 23 -51 52c0 28 23 51 51 51z" />
    <glyph glyph-name="cent" unicode="&#xa2;" horiz-adv-x="516" 
d="M290 551v-431c52 8 87 57 96 131h36c-6 -88 -59 -152 -132 -161v-75h-31v74c-104 12 -171 107 -171 244c0 138 66 232 171 244v74h31v-74c32 -4 56 -15 80 -41l25 50h17v-155h-19c-15 73 -49 113 -103 120zM259 120v431c-69 -14 -104 -86 -104 -215
c0 -138 32 -203 104 -216z" />
    <glyph glyph-name="sterling" unicode="&#xa3;" horiz-adv-x="516" 
d="M204 361h123v-36h-128l-17 -135c-9 -69 -28 -117 -65 -166c32 21 64 31 96 31c18 0 25 -1 63 -10c24 -6 41 -8 57 -8c47 0 74 31 83 95h36c-8 -46 -19 -75 -39 -99c-22 -27 -45 -33 -114 -33h-235c27 31 40 70 49 144l22 181h-71v36h76l11 90c17 149 81 227 183 227
c66 0 102 -36 112 -110h-37c-8 55 -31 79 -75 79c-41 0 -75 -25 -93 -68c-10 -21 -17 -54 -23 -100z" />
    <glyph glyph-name="fraction" unicode="&#x2044;" horiz-adv-x="42" 
d="M-190 0l384 653h38l-384 -653h-38z" />
    <glyph glyph-name="yen" unicode="&#xa5;" horiz-adv-x="516" 
d="M216 328l-30 75h-128v36h113l-65 161c-14 35 -33 47 -82 50v20c55 -5 78 -7 103 -7c26 0 50 2 103 7v-20c-47 -5 -61 -11 -61 -27c0 -5 2 -14 7 -26l104 -262l107 267c6 15 7 17 7 23c0 16 -14 22 -60 25v20c44 -5 61 -6 81 -6s37 1 80 6v-20c-46 -5 -64 -17 -78 -50
l-64 -161h109v-36h-124l-30 -75h154v-36h-168v-210c0 -38 3 -46 24 -54c15 -6 27 -9 58 -11v-20c-59 6 -86 8 -116 8s-56 -2 -115 -8v20c31 2 43 5 58 11c21 8 24 15 24 54v210h-169v36h158z" />
    <glyph glyph-name="florin" unicode="&#x192;" horiz-adv-x="516" 
d="M416 472v-37h-107l-62 -347c-28 -158 -70 -215 -158 -215c-57 0 -97 32 -97 77c0 24 15 40 37 40c18 0 31 -12 31 -28c0 -4 -1 -8 -5 -20c-2 -9 -3 -12 -3 -15c0 -15 15 -26 35 -26c48 0 72 37 91 143l70 391h-70v30h16c53 0 57 3 69 63c14 67 20 86 35 112
c26 44 72 69 126 69c51 0 85 -28 85 -72c0 -25 -12 -39 -34 -39c-19 0 -33 11 -33 27c0 6 1 10 5 25c1 4 1 7 1 10c0 12 -12 21 -29 21c-45 0 -73 -34 -85 -105l-19 -104h101z" />
    <glyph glyph-name="section" unicode="&#xa7;" horiz-adv-x="516" 
d="M81 5h33c11 -75 53 -111 131 -111c71 0 120 42 120 101c0 40 -21 67 -75 99l-136 81c-53 31 -75 65 -75 114c0 67 34 100 121 117c-84 53 -104 78 -104 133c0 81 67 139 160 139c98 0 164 -58 169 -151h-34c-7 72 -52 111 -126 111c-67 0 -114 -36 -114 -87
c0 -40 19 -63 83 -100l120 -70c60 -35 83 -68 83 -119c0 -61 -32 -100 -105 -129c69 -45 91 -77 91 -130c0 -86 -72 -148 -173 -148c-97 0 -160 56 -169 150zM322 335l-84 50c-78 -14 -108 -39 -108 -86c0 -33 15 -55 57 -80l115 -69c60 25 85 54 85 99c0 36 -16 58 -65 86z
" />
    <glyph glyph-name="currency" unicode="&#xa4;" horiz-adv-x="667" 
d="M68 118l90 91c-36 45 -53 92 -53 144c0 53 16 96 53 143l-93 92l30 30l92 -91c48 38 92 54 146 54s99 -17 145 -54l92 91l30 -30l-92 -92c37 -48 53 -90 53 -143s-16 -97 -52 -143l92 -92l-30 -31l-92 92c-45 -35 -92 -52 -145 -52c-52 0 -95 15 -145 52l-91 -92z
M335 534c-101 0 -181 -80 -181 -181c0 -98 80 -179 179 -179s179 80 179 180c0 98 -80 180 -177 180z" />
    <glyph glyph-name="quotesingle" unicode="'" horiz-adv-x="250" 
d="M150 400h-49l-9 267h67z" />
    <glyph glyph-name="quotedblleft" unicode="&#x201c;" horiz-adv-x="386" 
d="M279 671h50c-41 -37 -81 -105 -82 -138h4c6 2 8 3 14 3c24 0 41 -18 41 -42c0 -27 -21 -47 -50 -47c-32 0 -52 22 -52 57c0 48 28 109 75 167zM133 671h50c-41 -37 -81 -105 -82 -138h3c6 2 9 3 15 3c23 0 40 -18 40 -42c0 -27 -21 -47 -50 -47c-32 0 -51 22 -51 57
c0 48 28 110 75 167z" />
    <glyph glyph-name="guillemotleft" unicode="&#xab;" horiz-adv-x="379" 
d="M170 472h29l-86 -233l86 -239h-29l-111 239zM291 472h28l-86 -233l86 -239h-28l-111 239z" />
    <glyph glyph-name="guilsinglleft" unicode="&#x2039;" horiz-adv-x="258" 
d="M170 472h33l-86 -233l86 -239h-33l-111 239z" />
    <glyph glyph-name="guilsinglright" unicode="&#x203a;" horiz-adv-x="263" 
d="M92 472l111 -233l-111 -239h-33l86 239l-86 233h33z" />
    <glyph glyph-name="fi" unicode="&#xfb01;" horiz-adv-x="534" 
d="M165 472h115v-36h-115v-371c0 -40 12 -48 72 -51v-17c-51 5 -74 6 -103 6s-52 -1 -103 -6v17c60 3 72 11 72 51v371h-68v29c64 2 72 9 73 61c1 55 8 81 25 104c22 30 62 48 107 48c51 0 88 -29 88 -68c0 -21 -12 -34 -34 -34c-18 0 -31 12 -31 28l1 12c1 4 1 7 1 10
c0 17 -12 28 -32 28c-26 0 -49 -17 -60 -45c-6 -16 -8 -38 -8 -81v-56zM435 489v-424c0 -40 12 -48 72 -51v-17c-51 5 -74 6 -103 6s-52 -1 -103 -6v17c60 3 72 11 72 51v333c0 48 -6 53 -71 54v14c50 5 93 12 133 23zM414 660c26 0 47 -21 47 -47s-21 -47 -48 -47
c-25 0 -46 21 -46 47s21 47 47 47z" />
    <glyph glyph-name="fl" unicode="&#xfb02;" horiz-adv-x="530" 
d="M35 436v29c64 2 72 9 73 61c2 55 8 81 25 104c22 30 63 48 107 48c31 0 51 -7 70 -25c46 5 89 13 125 22v-610c0 -40 12 -48 72 -51v-17c-51 5 -74 6 -103 6s-52 -1 -103 -6v17c60 3 72 11 72 51v519c0 45 -6 51 -52 54c6 -10 8 -18 8 -28c0 -21 -13 -34 -34 -34
c-18 0 -33 13 -32 28c0 2 1 7 2 12c1 4 1 7 1 10c0 17 -12 28 -32 28c-27 0 -50 -17 -61 -45c-6 -16 -8 -38 -8 -81v-56h115v-36h-115v-371c0 -40 12 -48 72 -51v-17c-51 5 -74 6 -103 6s-52 -1 -103 -6v17c60 3 72 11 72 51v371h-68z" />
    <glyph glyph-name="endash" unicode="&#x2013;" horiz-adv-x="516" 
d="M92 252v42h333v-42h-333z" />
    <glyph glyph-name="dagger" unicode="&#x2020;" horiz-adv-x="516" 
d="M229 -117l7 545l-167 -10v58l167 -9l-7 183h58l-7 -183l167 9v-58l-167 10l7 -545h-58z" />
    <glyph glyph-name="daggerdbl" unicode="&#x2021;" horiz-adv-x="516" 
d="M236 436l-164 -10v59l164 -10l-7 175h58l-7 -175l164 10v-59l-164 10v-331l164 10v-58l-164 9l7 -183h-58l7 183l-164 -9v58l164 -10v331z" />
    <glyph glyph-name="periodcentered" unicode="&#xb7;" horiz-adv-x="217" 
d="M109 293c27 0 48 -22 48 -48c0 -27 -22 -49 -48 -49c-27 0 -49 22 -49 49s22 48 49 48z" />
    <glyph glyph-name="paragraph" unicode="&#xb6;" horiz-adv-x="516" 
d="M482 -128v-19c-66 5 -103 7 -172 7s-106 -2 -173 -7v19c35 3 44 5 58 11c20 9 24 18 24 54v400c-106 15 -158 71 -158 170c0 66 26 114 75 138c31 16 71 22 139 22h208v-19c-72 -6 -82 -14 -82 -65v-646c0 -36 4 -45 24 -54c13 -6 22 -8 57 -11zM359 -47v619
c0 59 -6 67 -47 67c-44 0 -51 -9 -51 -66v-621c0 -57 7 -66 51 -66c41 0 47 8 47 67z" />
    <glyph glyph-name="bullet" unicode="&#x2022;" horiz-adv-x="667" 
d="M337 477c74 0 136 -63 136 -138c0 -77 -62 -139 -138 -139s-139 62 -139 138c0 78 62 139 141 139z" />
    <glyph glyph-name="quotesinglbase" unicode="&#x201a;" horiz-adv-x="240" 
d="M106 -143h-49c42 40 80 105 82 138h-4c-6 -2 -9 -3 -14 -3c-24 0 -41 18 -41 42c0 27 21 47 50 47c33 0 52 -22 52 -57c0 -48 -26 -104 -76 -167z" />
    <glyph glyph-name="quotedblbase" unicode="&#x201e;" horiz-adv-x="386" 
d="M106 -143h-49c42 40 80 105 82 138h-4c-6 -2 -9 -3 -14 -3c-24 0 -41 18 -41 42c0 27 21 47 50 47c33 0 52 -22 52 -57c0 -48 -26 -104 -76 -167zM253 -143h-50c42 40 81 105 82 138h-4c-6 -2 -8 -3 -14 -3c-24 0 -41 18 -41 42c0 27 21 47 50 47c33 0 52 -22 52 -57
c0 -48 -25 -104 -75 -167z" />
    <glyph glyph-name="quotedblright" unicode="&#x201d;" horiz-adv-x="386" 
d="M106 454h-49c40 37 81 105 82 138h-4c-6 -2 -9 -3 -14 -3c-24 0 -41 18 -41 42c0 27 21 47 50 47c33 0 52 -22 52 -58c0 -47 -28 -109 -76 -166zM253 454h-50c41 37 81 105 82 138h-4c-6 -2 -8 -3 -14 -3c-24 0 -41 18 -41 42c0 27 21 47 50 47c33 0 52 -22 52 -58
c0 -47 -28 -108 -75 -166z" />
    <glyph glyph-name="guillemotright" unicode="&#xbb;" horiz-adv-x="379" 
d="M208 472l111 -233l-111 -239h-28l86 239l-86 233h28zM87 472l112 -233l-112 -239h-28l86 239l-86 233h28z" />
    <glyph glyph-name="ellipsis" unicode="&#x2026;" horiz-adv-x="652" 
d="M109 89c26 0 48 -22 48 -48c0 -27 -22 -49 -48 -49c-27 0 -49 22 -49 48c0 28 22 49 49 49zM326 89c26 0 48 -22 48 -48c0 -27 -22 -49 -48 -49c-27 0 -49 22 -49 48c0 28 22 49 49 49zM543 89c26 0 48 -22 48 -48c0 -27 -22 -49 -48 -49c-27 0 -49 22 -49 48
c0 28 22 49 49 49z" />
    <glyph glyph-name="perthousand" unicode="&#x2030;" horiz-adv-x="884" 
d="M161 673c73 0 123 -64 123 -159s-51 -160 -125 -160c-76 0 -126 64 -126 161c0 93 53 158 128 158zM160 651c-49 0 -77 -50 -77 -137c0 -91 25 -138 75 -138c49 0 76 49 76 138s-26 137 -74 137zM76 0l393 667h38l-393 -667h-38zM428 313c73 0 123 -64 123 -159
s-51 -160 -125 -160c-76 0 -126 64 -126 161c0 93 53 158 128 158zM427 291c-49 0 -77 -50 -77 -137c0 -91 25 -138 75 -138c49 0 76 49 76 137c0 90 -26 138 -74 138zM727 313c73 0 123 -64 123 -159s-51 -160 -125 -160c-76 0 -126 64 -126 161c0 93 53 158 128 158z
M726 291c-49 0 -77 -50 -77 -137c0 -92 25 -138 75 -138c49 0 76 49 76 137c0 90 -26 138 -74 138z" />
    <glyph glyph-name="questiondown" unicode="&#xbf;" horiz-adv-x="365" 
d="M191 292h42c4 -27 5 -40 5 -58c0 -34 -7 -65 -22 -91c-13 -24 -15 -26 -68 -77c-42 -39 -61 -74 -61 -111c0 -54 37 -90 93 -90c71 0 118 45 125 120h22c0 -54 -11 -87 -38 -117c-30 -33 -78 -52 -127 -52c-83 0 -141 57 -141 138c0 28 8 57 23 80c15 24 21 31 72 73
c58 48 78 87 78 147c0 14 -1 21 -3 38zM204 481c28 0 51 -23 51 -51c0 -29 -23 -52 -52 -52c-28 0 -51 23 -51 52c0 28 23 51 52 51z" />
    <glyph glyph-name="grave" unicode="`" 
d="M310 552h-44l-148 150h79z" />
    <glyph glyph-name="acute" unicode="&#xb4;" 
d="M221 552l113 150h79l-147 -150h-45z" />
    <glyph glyph-name="circumflex" unicode="&#x2c6;" 
d="M100 558l119 139h63l119 -139h-48l-103 92l-102 -92h-48z" />
    <glyph glyph-name="tilde" unicode="&#x2dc;" 
d="M129 581l-27 7c15 68 40 94 88 94c28 0 37 -5 85 -45c16 -12 28 -17 44 -17c30 0 49 19 54 54l26 -6c-8 -64 -38 -98 -88 -98c-26 0 -40 7 -78 39c-20 17 -33 23 -49 23c-27 0 -48 -19 -55 -51z" />
    <glyph glyph-name="macron" unicode="&#xaf;" 
d="M105 596v46h290v-46h-290z" />
    <glyph glyph-name="breve" unicode="&#x2d8;" 
d="M351 698h32c-9 -86 -61 -141 -133 -141s-123 55 -132 141h32c12 -52 51 -85 100 -85c50 0 88 33 101 85z" />
    <glyph glyph-name="dotaccent" unicode="&#x2d9;" 
d="M250 664c26 0 47 -21 47 -47c0 -27 -21 -48 -47 -48c-27 0 -48 21 -48 47c0 27 21 48 48 48z" />
    <glyph glyph-name="dieresis" unicode="&#xa8;" 
d="M164 664c26 0 47 -21 47 -47c0 -27 -21 -48 -47 -48c-27 0 -48 21 -48 47c0 27 21 48 48 48zM337 664c26 0 47 -21 47 -47c0 -27 -21 -48 -47 -48c-27 0 -48 21 -48 47c0 27 21 48 48 48z" />
    <glyph glyph-name="ring" unicode="&#x2da;" 
d="M252 715c44 0 80 -37 80 -81c0 -45 -37 -82 -81 -82c-45 0 -82 37 -82 81c0 46 36 82 83 82zM251 683c-28 0 -50 -22 -50 -50c0 -27 22 -49 50 -49c27 0 49 22 49 50c0 27 -22 49 -49 49z" />
    <glyph glyph-name="cedilla" unicode="&#xb8;" 
d="M242 0h42l-30 -62c58 -7 84 -27 84 -67c0 -44 -37 -73 -92 -73c-26 0 -44 4 -72 15v29c29 -8 36 -9 51 -9c34 0 54 17 54 44c0 29 -22 42 -78 45z" />
    <glyph glyph-name="hungarumlaut" unicode="&#x2dd;" 
d="M171 552l85 150h74l-120 -150h-39zM302 552l85 150h74l-120 -150h-39z" />
    <glyph glyph-name="ogonek" unicode="&#x2db;" 
d="M304 10l26 -7c-58 -21 -87 -47 -87 -79c0 -27 23 -46 57 -46c10 0 17 1 31 5v-29c-24 -9 -38 -12 -56 -12c-52 0 -91 32 -91 75s39 74 120 93z" />
    <glyph glyph-name="caron" unicode="&#x2c7;" 
d="M401 697l-119 -139h-63l-119 139h48l102 -92l103 92h48z" />
    <glyph glyph-name="emdash" unicode="&#x2014;" horiz-adv-x="560" 
d="M0 252v42h560v-42h-560z" />
    <glyph glyph-name="AE" unicode="&#xc6;" horiz-adv-x="880" 
d="M812 667l13 -141h-19c-25 92 -46 113 -112 113h-154v-278h156c44 0 55 16 58 82h20v-193h-20c-3 62 -18 83 -58 83h-156v-243c0 -49 15 -62 71 -62h78c59 0 78 9 98 44c12 21 21 45 29 80h20l-20 -152h-425v19c72 6 82 14 82 66v146h-233l-92 -163c-6 -10 -9 -20 -9 -26
c0 -18 16 -24 71 -25v-20c-63 5 -79 6 -100 6s-37 -1 -100 -6v20c61 4 79 15 109 67l336 583h357zM257 259h216v380z" />
    <glyph glyph-name="ordfeminine" unicode="&#xaa;" horiz-adv-x="344" 
d="M302 399v-22c-14 -3 -23 -4 -34 -4c-27 0 -38 11 -45 45c-18 -32 -43 -47 -80 -47c-52 0 -88 34 -88 82c0 57 59 98 161 111v31c0 44 -14 61 -50 61c-20 0 -41 -8 -49 -20c-4 -5 -4 -6 -4 -25c0 -20 -8 -30 -25 -30c-13 0 -21 8 -21 21c0 41 47 76 101 76
c60 0 93 -33 93 -92v-133c0 -42 5 -56 22 -56c5 0 9 1 19 2zM216 494v47c-77 -12 -115 -41 -115 -87c0 -33 19 -52 51 -52c45 0 64 27 64 92zM36 317h276v-34h-276v34z" />
    <glyph glyph-name="Lslash" unicode="&#x141;" horiz-adv-x="488" 
d="M116 316l-82 -50v37l82 49v233c0 51 -11 60 -82 65v20c58 -6 84 -8 116 -8c30 0 57 2 115 8v-20c-71 -5 -82 -13 -82 -65v-204l152 91v-37l-152 -91v-250c0 -49 15 -62 70 -62h78c59 0 78 8 98 43c12 20 20 43 29 77h19l-19 -152h-424v19c72 6 82 14 82 66v231z" />
    <glyph glyph-name="Oslash" unicode="&#xd8;" horiz-adv-x="619" 
d="M557 667h43l-84 -103c36 -66 52 -133 52 -218c0 -215 -103 -357 -259 -357c-74 0 -124 22 -183 83l-58 -72h-45l81 104c-36 64 -53 134 -53 220c0 213 104 354 261 354c75 0 139 -30 184 -87zM144 150l318 403c-34 65 -83 98 -146 98c-122 0 -197 -128 -197 -335
c0 -64 8 -117 25 -166zM476 515l-316 -402c28 -61 84 -97 148 -97c118 0 192 130 192 336c0 69 -7 121 -24 163z" />
    <glyph glyph-name="OE" unicode="&#x152;" horiz-adv-x="902" 
d="M495 566v101h339l13 -141h-19c-25 92 -46 113 -112 113h-162v-278h163c45 0 56 16 59 82h20v-193h-20c-2 62 -17 83 -58 83h-164v-243c0 -49 16 -62 78 -62h79c59 0 78 9 98 44c12 21 21 45 29 80h20l-20 -152h-343v99c-47 -75 -107 -110 -188 -110
c-154 0 -257 139 -257 348c0 203 103 341 254 341c80 0 140 -35 191 -112zM308 651c-116 0 -186 -118 -186 -315s73 -320 190 -320c114 0 183 119 183 314c0 200 -70 321 -187 321z" />
    <glyph glyph-name="ordmasculine" unicode="&#xba;" horiz-adv-x="344" 
d="M175 678c70 0 116 -62 116 -155c0 -89 -49 -152 -119 -152s-118 62 -118 153c0 92 49 154 121 154zM174 656c-46 0 -72 -47 -72 -133c0 -85 24 -130 70 -130c45 0 71 46 71 129c0 89 -23 134 -69 134zM34 317h277v-34h-277v34z" />
    <glyph glyph-name="ae" unicode="&#xe6;" horiz-adv-x="705" 
d="M623 155h40c-9 -101 -75 -163 -173 -163c-81 0 -134 34 -170 110c-28 -76 -72 -110 -142 -110c-78 0 -136 53 -136 126c0 59 41 106 114 132c40 14 78 22 146 31v70c0 40 -5 60 -17 76c-15 18 -40 28 -69 28c-34 0 -69 -14 -83 -34c-7 -10 -7 -13 -7 -44
c0 -30 -11 -43 -36 -43c-18 0 -28 10 -28 29c0 62 74 117 157 117c57 0 107 -25 130 -64c33 41 82 64 137 64c78 0 136 -45 160 -125c9 -30 14 -58 16 -107h-301c1 -72 6 -112 20 -145c22 -53 61 -80 115 -80c72 0 116 46 127 132zM302 186v69c-68 -12 -89 -18 -121 -32
c-50 -22 -75 -57 -75 -104c0 -54 34 -88 88 -88c76 0 108 46 108 155zM362 284h238c-2 108 -44 171 -115 171c-69 0 -114 -63 -123 -171z" />
    <glyph glyph-name="dotlessi" unicode="&#x131;" horiz-adv-x="263" 
d="M165 489v-424c0 -40 12 -48 72 -51v-17c-51 5 -74 6 -103 6s-53 -1 -103 -6v17c60 3 72 11 72 51v333c0 48 -6 53 -71 54v14c50 4 95 12 133 23z" />
    <glyph glyph-name="lslash" unicode="&#x142;" horiz-adv-x="260" 
d="M165 384l71 43v-37l-71 -44v-281c0 -40 12 -48 72 -51v-17c-51 5 -75 6 -103 6c-29 0 -52 -1 -103 -6v17c60 3 72 11 72 51v258l-72 -43v38l72 43v223c0 48 -7 54 -71 54v14c49 5 96 13 133 23v-291z" />
    <glyph glyph-name="oslash" unicode="&#xf8;" horiz-adv-x="456" 
d="M61 0h-41l59 76c-26 45 -37 90 -37 151c0 150 79 254 192 254c50 0 87 -16 120 -52l33 43h42l-55 -71c27 -44 40 -95 40 -156c0 -149 -78 -254 -189 -254c-50 0 -93 20 -126 57zM338 356l-210 -273c20 -44 52 -67 95 -67c81 0 131 88 131 232c0 45 -5 78 -16 108z
M116 120l209 275c-21 41 -50 61 -91 61c-82 0 -132 -90 -132 -237c0 -39 4 -64 14 -99z" />
    <glyph glyph-name="oe" unicode="&#x153;" horiz-adv-x="750" 
d="M668 155h39c-9 -102 -74 -163 -172 -163c-73 0 -124 28 -159 88c-35 -58 -86 -88 -149 -88c-110 0 -185 98 -185 244s76 244 190 244c62 0 112 -31 145 -88c36 58 88 88 153 88c79 0 136 -44 161 -125c11 -34 15 -66 15 -115h-301c2 -67 7 -105 21 -137
c22 -53 61 -80 114 -80c72 0 116 46 128 132zM230 455c-78 0 -121 -78 -121 -220c0 -143 40 -218 118 -218c77 0 120 77 120 216c0 147 -40 222 -117 222zM406 276h239c-4 119 -43 179 -115 179s-110 -56 -124 -179z" />
    <glyph glyph-name="germandbls" unicode="&#xdf;" horiz-adv-x="505" 
d="M200 357v28c102 1 149 44 149 136c0 79 -33 124 -91 124c-36 0 -69 -19 -85 -49c-11 -22 -16 -49 -16 -92v-506c-25 2 -39 3 -59 3c-22 0 -40 -1 -75 -4v17c60 3 72 11 72 51v416c0 119 64 192 168 192c89 0 153 -63 153 -151c0 -43 -18 -83 -49 -110
c-16 -13 -30 -22 -63 -37c106 -25 158 -89 158 -192c0 -106 -68 -189 -155 -189c-32 0 -56 9 -89 36v25c24 -16 40 -21 62 -21c68 0 115 59 115 144c0 110 -74 178 -195 179z" />
    <glyph glyph-name="Adieresis" unicode="&#xc4;" horiz-adv-x="629" 
d="M415 198h-238l-36 -103c-9 -26 -12 -39 -12 -47c0 -21 16 -29 64 -31v-20c-40 5 -62 6 -91 6c-30 0 -52 -1 -92 -6v20c60 4 71 11 88 59l230 611l201 -615c15 -43 26 -50 90 -55v-20c-49 6 -75 8 -111 8s-62 -2 -111 -8v20c43 4 61 13 61 31c0 5 -4 26 -6 32zM187 226
h219l-101 323zM237 846c27 0 50 -23 50 -51s-23 -51 -51 -51s-51 23 -51 51c0 29 23 51 52 51zM413 846c27 0 50 -23 50 -51s-23 -51 -51 -51s-51 23 -51 51c0 29 23 51 52 51z" />
    <glyph glyph-name="Aring" unicode="&#xc5;" horiz-adv-x="629" 
d="M415 198h-238l-36 -103c-9 -26 -12 -39 -12 -47c0 -21 16 -29 64 -31v-20c-40 5 -62 6 -91 6c-30 0 -52 -1 -92 -6v20c60 4 71 11 88 59l230 611l201 -615c15 -43 26 -50 90 -55v-20c-49 6 -75 8 -111 8s-62 -2 -111 -8v20c43 4 61 13 61 31c0 5 -4 26 -6 32zM187 226
h219l-101 323zM326 876c44 0 80 -37 80 -81c0 -45 -36 -82 -81 -82s-82 37 -82 81c0 46 36 82 83 82zM325 844c-28 0 -50 -22 -50 -50c0 -27 22 -49 50 -49c27 0 49 22 49 50c0 27 -22 49 -49 49z" />
    <glyph glyph-name="Eacute" unicode="&#xc9;" horiz-adv-x="528" 
d="M477 152l-19 -152h-424v19c72 6 82 14 82 66v498c0 51 -10 59 -82 65v19h419l14 -141h-19c-25 92 -46 113 -112 113h-153v-278h155c44 0 55 16 58 82h20v-193h-20c-2 61 -17 83 -58 83h-155v-243c0 -49 15 -62 70 -62h78c59 0 78 9 98 44c12 21 21 45 29 80h19zM211 725
l141 139h87l-178 -139h-50z" />
    <glyph glyph-name="Ntilde" unicode="&#xd1;" horiz-adv-x="665" 
d="M552 -22h-11l-393 618v-514c0 -39 3 -46 24 -54c15 -6 27 -9 58 -11v-20c-61 5 -80 6 -101 6s-42 -1 -95 -6v20c30 2 43 5 58 11c21 8 24 15 24 54v542c-15 19 -31 23 -83 26v20c31 -3 49 -4 77 -4c26 0 40 1 67 4l343 -534v449c0 39 -3 46 -24 54c-15 7 -28 9 -58 11v20
c61 -4 80 -5 101 -5c22 0 42 1 95 5v-20c-29 -2 -43 -4 -58 -11c-21 -8 -24 -15 -24 -54v-607zM211 748l-29 7c13 64 43 94 95 94c30 0 40 -5 91 -45c17 -12 30 -17 47 -17c32 0 53 19 59 53l27 -5c-8 -64 -41 -98 -94 -98c-29 0 -44 7 -84 39c-21 17 -35 23 -53 23
c-29 0 -51 -19 -59 -51z" />
    <glyph glyph-name="Odieresis" unicode="&#xd6;" horiz-adv-x="618" 
d="M309 678c159 0 259 -135 259 -348c0 -204 -102 -341 -256 -341c-159 0 -261 136 -261 347c0 207 102 342 258 342zM309 651c-116 0 -186 -119 -186 -316s72 -319 190 -319c114 0 183 119 183 315c0 201 -70 320 -187 320zM222 846c27 0 50 -23 50 -51s-23 -51 -51 -51
s-51 23 -51 51c0 29 23 51 52 51zM398 846c27 0 50 -23 50 -51s-23 -51 -51 -51s-51 23 -51 51c0 29 23 51 52 51z" />
    <glyph glyph-name="Udieresis" unicode="&#xdc;" horiz-adv-x="654" 
d="M544 585v-381c0 -64 -8 -98 -31 -132c-37 -54 -102 -83 -186 -83c-72 0 -130 22 -170 65c-34 36 -46 73 -46 143v388c0 51 -11 60 -82 65v20c58 -6 84 -8 116 -8c30 0 57 2 115 8v-20c-71 -5 -82 -13 -82 -65v-390c0 -68 7 -93 33 -121c30 -30 74 -46 130 -46
c66 0 120 24 147 64c16 24 24 57 24 101v392c0 52 -11 60 -82 65v20c61 -4 80 -5 101 -5c22 0 42 1 95 5v-20c-71 -5 -82 -14 -82 -65zM254 846c27 0 50 -23 50 -51s-23 -51 -51 -51s-51 23 -51 51c0 29 23 51 52 51zM430 846c27 0 50 -23 50 -51s-23 -51 -51 -51
s-51 23 -51 51c0 29 23 51 52 51z" />
    <glyph glyph-name="aacute" unicode="&#xe1;" horiz-adv-x="452" 
d="M430 25v-26c-24 -4 -33 -5 -49 -5c-44 0 -63 23 -69 84c-36 -64 -70 -86 -133 -86c-81 0 -137 53 -137 128c0 61 36 104 114 137c47 20 88 30 146 38v56c0 40 -5 60 -17 76c-15 18 -40 28 -69 28c-34 0 -69 -14 -83 -34c-7 -10 -7 -13 -7 -44c0 -30 -11 -43 -36 -43
c-18 0 -28 10 -28 29c0 62 74 117 157 117c52 0 101 -22 124 -57c15 -21 21 -47 21 -88v-215c0 -74 10 -98 41 -98c7 0 12 1 25 3zM302 186v84c-134 -23 -196 -70 -196 -149c0 -56 33 -90 88 -90c76 0 108 47 108 155zM166 552l113 150h79l-147 -150h-45z" />
    <glyph glyph-name="agrave" unicode="&#xe0;" horiz-adv-x="452" 
d="M430 25v-26c-24 -4 -33 -5 -49 -5c-44 0 -63 23 -69 84c-36 -64 -70 -86 -133 -86c-81 0 -137 53 -137 128c0 61 36 104 114 137c47 20 88 30 146 38v56c0 40 -5 60 -17 76c-15 18 -40 28 -69 28c-34 0 -69 -14 -83 -34c-7 -10 -7 -13 -7 -44c0 -30 -11 -43 -36 -43
c-18 0 -28 10 -28 29c0 62 74 117 157 117c52 0 101 -22 124 -57c15 -21 21 -47 21 -88v-215c0 -74 10 -98 41 -98c7 0 12 1 25 3zM302 186v84c-134 -23 -196 -70 -196 -149c0 -56 33 -90 88 -90c76 0 108 47 108 155zM268 552h-44l-148 150h79z" />
    <glyph glyph-name="acircumflex" unicode="&#xe2;" horiz-adv-x="452" 
d="M430 25v-26c-24 -4 -33 -5 -49 -5c-44 0 -63 23 -69 84c-36 -64 -70 -86 -133 -86c-81 0 -137 53 -137 128c0 61 36 104 114 137c47 20 88 30 146 38v56c0 40 -5 60 -17 76c-15 18 -40 28 -69 28c-34 0 -69 -14 -83 -34c-7 -10 -7 -13 -7 -44c0 -30 -11 -43 -36 -43
c-18 0 -28 10 -28 29c0 62 74 117 157 117c52 0 101 -22 124 -57c15 -21 21 -47 21 -88v-215c0 -74 10 -98 41 -98c7 0 12 1 25 3zM302 186v84c-134 -23 -196 -70 -196 -149c0 -56 33 -90 88 -90c76 0 108 47 108 155zM68 558l119 139h63l119 -139h-48l-103 92l-102 -92h-48
z" />
    <glyph glyph-name="adieresis" unicode="&#xe4;" horiz-adv-x="452" 
d="M430 25v-26c-24 -4 -33 -5 -49 -5c-44 0 -63 23 -69 84c-36 -64 -70 -86 -133 -86c-81 0 -137 53 -137 128c0 61 36 104 114 137c47 20 88 30 146 38v56c0 40 -5 60 -17 76c-15 18 -40 28 -69 28c-34 0 -69 -14 -83 -34c-7 -10 -7 -13 -7 -44c0 -30 -11 -43 -36 -43
c-18 0 -28 10 -28 29c0 62 74 117 157 117c52 0 101 -22 124 -57c15 -21 21 -47 21 -88v-215c0 -74 10 -98 41 -98c7 0 12 1 25 3zM302 186v84c-134 -23 -196 -70 -196 -149c0 -56 33 -90 88 -90c76 0 108 47 108 155zM132 664c26 0 47 -21 47 -47c0 -27 -21 -48 -47 -48
c-27 0 -48 21 -48 47c0 27 21 48 48 48zM305 664c26 0 47 -21 47 -47c0 -27 -21 -48 -47 -48c-27 0 -48 21 -48 47c0 27 21 48 48 48z" />
    <glyph glyph-name="atilde" unicode="&#xe3;" horiz-adv-x="452" 
d="M430 25v-26c-24 -4 -33 -5 -49 -5c-44 0 -63 23 -69 84c-36 -64 -70 -86 -133 -86c-81 0 -137 53 -137 128c0 61 36 104 114 137c47 20 88 30 146 38v56c0 40 -5 60 -17 76c-15 18 -40 28 -69 28c-34 0 -69 -14 -83 -34c-7 -10 -7 -13 -7 -44c0 -30 -11 -43 -36 -43
c-18 0 -28 10 -28 29c0 62 74 117 157 117c52 0 101 -22 124 -57c15 -21 21 -47 21 -88v-215c0 -74 10 -98 41 -98c7 0 12 1 25 3zM302 186v84c-134 -23 -196 -70 -196 -149c0 -56 33 -90 88 -90c76 0 108 47 108 155zM97 581l-27 7c15 68 40 94 88 94c28 0 37 -5 85 -45
c16 -12 28 -17 44 -17c30 0 49 19 54 54l26 -6c-8 -64 -38 -98 -88 -98c-26 0 -40 7 -78 39c-20 17 -33 23 -49 23c-27 0 -48 -19 -55 -51z" />
    <glyph glyph-name="aring" unicode="&#xe5;" horiz-adv-x="452" 
d="M430 25v-26c-24 -4 -33 -5 -49 -5c-44 0 -63 23 -69 84c-36 -64 -70 -86 -133 -86c-81 0 -137 53 -137 128c0 61 36 104 114 137c47 20 88 30 146 38v56c0 40 -5 60 -17 76c-15 18 -40 28 -69 28c-34 0 -69 -14 -83 -34c-7 -10 -7 -13 -7 -44c0 -30 -11 -43 -36 -43
c-18 0 -28 10 -28 29c0 62 74 117 157 117c52 0 101 -22 124 -57c15 -21 21 -47 21 -88v-215c0 -74 10 -98 41 -98c7 0 12 1 25 3zM302 186v84c-134 -23 -196 -70 -196 -149c0 -56 33 -90 88 -90c76 0 108 47 108 155zM220 715c44 0 80 -37 80 -81c0 -45 -37 -82 -81 -82
c-45 0 -82 37 -82 81c0 46 36 82 83 82zM219 683c-28 0 -50 -22 -50 -50c0 -27 22 -49 50 -49c27 0 49 22 49 50c0 27 -22 49 -49 49z" />
    <glyph glyph-name="eacute" unicode="&#xe9;" horiz-adv-x="450" 
d="M367 155h40c-10 -104 -72 -165 -168 -165c-127 0 -197 86 -197 242c0 155 72 251 189 251c114 0 176 -81 175 -231h-302c0 -157 44 -231 136 -231c72 0 116 46 127 134zM107 288h237c-6 113 -44 170 -114 170c-67 0 -111 -60 -123 -170zM182 552l113 150h79l-147 -150
h-45z" />
    <glyph glyph-name="egrave" unicode="&#xe8;" horiz-adv-x="450" 
d="M367 155h40c-10 -104 -72 -165 -168 -165c-127 0 -197 86 -197 242c0 155 72 251 189 251c114 0 176 -81 175 -231h-302c0 -157 44 -231 136 -231c72 0 116 46 127 134zM107 288h237c-6 113 -44 170 -114 170c-67 0 -111 -60 -123 -170zM280 552h-44l-148 150h79z" />
    <glyph glyph-name="ecircumflex" unicode="&#xea;" horiz-adv-x="450" 
d="M367 155h40c-10 -104 -72 -165 -168 -165c-127 0 -197 86 -197 242c0 155 72 251 189 251c114 0 176 -81 175 -231h-302c0 -157 44 -231 136 -231c72 0 116 46 127 134zM107 288h237c-6 113 -44 170 -114 170c-67 0 -111 -60 -123 -170zM81 558l119 139h63l119 -139h-48
l-103 92l-102 -92h-48z" />
    <glyph glyph-name="edieresis" unicode="&#xeb;" horiz-adv-x="450" 
d="M367 155h40c-10 -104 -72 -165 -168 -165c-127 0 -197 86 -197 242c0 155 72 251 189 251c114 0 176 -81 175 -231h-302c0 -157 44 -231 136 -231c72 0 116 46 127 134zM107 288h237c-6 113 -44 170 -114 170c-67 0 -111 -60 -123 -170zM145 664c26 0 47 -21 47 -47
c0 -27 -21 -48 -47 -48c-27 0 -48 21 -48 47c0 27 21 48 48 48zM318 664c26 0 47 -21 47 -47c0 -27 -21 -48 -47 -48c-27 0 -48 21 -48 47c0 27 21 48 48 48z" />
    <glyph glyph-name="iacute" unicode="&#xed;" horiz-adv-x="263" 
d="M165 489v-424c0 -40 12 -48 72 -51v-17c-51 5 -74 6 -103 6s-53 -1 -103 -6v17c60 3 72 11 72 51v333c0 48 -6 53 -71 54v14c50 4 95 12 133 23zM79 552l99 150h76l-131 -150h-44z" />
    <glyph glyph-name="igrave" unicode="&#xec;" horiz-adv-x="263" 
d="M165 489v-424c0 -40 12 -48 72 -51v-17c-51 5 -74 6 -103 6s-53 -1 -103 -6v17c60 3 72 11 72 51v333c0 48 -6 53 -71 54v14c50 4 95 12 133 23zM172 552h-45l-131 150h76z" />
    <glyph glyph-name="icircumflex" unicode="&#xee;" horiz-adv-x="263" 
d="M165 489v-424c0 -40 12 -48 72 -51v-17c-51 5 -74 6 -103 6s-53 -1 -103 -6v17c60 3 72 11 72 51v333c0 48 -6 53 -71 54v14c50 4 95 12 133 23zM-13 558l106 139h63l105 -139h-48l-89 92l-89 -92h-48z" />
    <glyph glyph-name="idieresis" unicode="&#xef;" horiz-adv-x="263" 
d="M165 489v-424c0 -40 12 -48 72 -51v-17c-51 5 -74 6 -103 6s-53 -1 -103 -6v17c60 3 72 11 72 51v333c0 48 -6 53 -71 54v14c50 4 95 12 133 23zM53 661c24 0 45 -21 45 -46c0 -26 -20 -46 -46 -46c-25 0 -46 21 -46 46s21 46 47 46zM192 661c24 0 45 -21 45 -46
s-21 -46 -46 -46s-46 21 -46 46c0 26 21 46 47 46z" />
    <glyph glyph-name="ntilde" unicode="&#xf1;" horiz-adv-x="530" 
d="M33 448v14c47 7 86 16 120 30c4 -26 5 -39 7 -89c35 53 76 77 131 77c51 0 97 -24 122 -65c15 -24 22 -59 22 -106v-244c0 -40 12 -48 72 -51v-17c-50 5 -74 6 -104 6s-53 -1 -103 -6v17c61 2 73 11 73 51v242c0 49 -5 74 -18 94c-16 24 -43 37 -77 37
c-37 0 -71 -17 -92 -45c-15 -21 -21 -45 -21 -90v-238c0 -40 12 -48 72 -51v-17c-50 5 -74 6 -103 6s-53 -1 -103 -6v17c60 3 72 11 72 51v324c0 37 -1 43 -8 50c-8 7 -15 7 -62 9zM137 581l-27 7c15 68 40 94 88 94c28 0 37 -5 85 -45c16 -12 28 -17 44 -17
c30 0 49 19 54 54l26 -6c-8 -64 -38 -98 -88 -98c-26 0 -40 7 -78 39c-20 17 -33 23 -49 23c-27 0 -48 -19 -55 -51z" />
    <glyph glyph-name="oacute" unicode="&#xf3;" horiz-adv-x="456" 
d="M231 480c110 0 182 -98 182 -246c0 -142 -77 -242 -186 -242c-110 0 -185 98 -185 243c0 146 77 245 189 245zM229 455c-77 0 -120 -79 -120 -220c0 -143 40 -218 117 -218s120 78 120 216c0 146 -40 222 -117 222zM178 552l113 150h80l-148 -150h-45z" />
    <glyph glyph-name="ograve" unicode="&#xf2;" horiz-adv-x="456" 
d="M231 480c110 0 182 -98 182 -246c0 -142 -77 -242 -186 -242c-110 0 -185 98 -185 243c0 146 77 245 189 245zM229 455c-77 0 -120 -79 -120 -220c0 -143 40 -218 117 -218s120 78 120 216c0 146 -40 222 -117 222zM284 552h-44l-148 150h80z" />
    <glyph glyph-name="ocircumflex" unicode="&#xf4;" horiz-adv-x="456" 
d="M231 480c110 0 182 -98 182 -246c0 -142 -77 -242 -186 -242c-110 0 -185 98 -185 243c0 146 77 245 189 245zM229 455c-77 0 -120 -79 -120 -220c0 -143 40 -218 117 -218s120 78 120 216c0 146 -40 222 -117 222zM77 558l119 139h63l119 -139h-48l-102 92l-103 -92h-48
z" />
    <glyph glyph-name="odieresis" unicode="&#xf6;" horiz-adv-x="456" 
d="M231 483c110 0 182 -99 182 -249c0 -143 -77 -244 -186 -244c-110 0 -185 99 -185 246s77 247 189 247zM229 458c-77 0 -120 -80 -120 -223c0 -144 40 -220 117 -220s120 79 120 219c0 147 -40 224 -117 224zM141 664c26 0 47 -21 47 -47c0 -27 -21 -48 -47 -48
c-27 0 -48 21 -48 47c0 27 21 48 48 48zM314 664c26 0 47 -21 47 -47c0 -27 -21 -48 -47 -48c-27 0 -48 21 -48 47c0 27 21 48 48 48z" />
    <glyph glyph-name="otilde" unicode="&#xf5;" horiz-adv-x="456" 
d="M231 480c110 0 182 -98 182 -246c0 -142 -77 -242 -186 -242c-110 0 -185 98 -185 243c0 146 77 245 189 245zM229 455c-77 0 -120 -79 -120 -220c0 -143 40 -218 117 -218s120 78 120 216c0 146 -40 222 -117 222zM113 581l-27 7c15 68 40 94 88 94c28 0 37 -5 85 -45
c15 -12 28 -17 44 -17c30 0 49 19 54 54l26 -6c-8 -64 -38 -98 -88 -98c-27 0 -40 7 -78 39c-20 17 -33 23 -49 23c-28 0 -48 -19 -55 -51z" />
    <glyph glyph-name="uacute" unicode="&#xfa;" horiz-adv-x="519" 
d="M17 452v14c50 5 93 12 133 23v-330c0 -89 27 -124 97 -124c77 0 112 45 112 142v221c0 48 -6 53 -71 54v14c50 5 94 12 133 23v-411c0 -45 5 -49 74 -49v-14c-50 -4 -89 -12 -125 -23c-2 17 -3 37 -4 91c-33 -65 -72 -91 -134 -91c-52 0 -97 22 -121 59
c-16 23 -23 57 -23 107v240c0 48 -6 53 -71 54zM200 552l113 150h79l-147 -150h-45z" />
    <glyph glyph-name="ugrave" unicode="&#xf9;" horiz-adv-x="519" 
d="M17 452v14c50 5 93 12 133 23v-330c0 -89 27 -124 97 -124c77 0 112 45 112 142v221c0 48 -6 53 -71 54v14c50 5 94 12 133 23v-411c0 -45 5 -49 74 -49v-14c-50 -4 -89 -12 -125 -23c-2 17 -3 37 -4 91c-33 -65 -72 -91 -134 -91c-52 0 -97 22 -121 59
c-16 23 -23 57 -23 107v240c0 48 -6 53 -71 54zM303 552h-44l-148 150h79z" />
    <glyph glyph-name="ucircumflex" unicode="&#xfb;" horiz-adv-x="519" 
d="M17 452v14c50 5 93 12 133 23v-330c0 -89 27 -124 97 -124c77 0 112 45 112 142v221c0 48 -6 53 -71 54v14c50 5 94 12 133 23v-411c0 -45 5 -49 74 -49v-14c-50 -4 -89 -12 -125 -23c-2 17 -3 37 -4 91c-33 -65 -72 -91 -134 -91c-52 0 -97 22 -121 59
c-16 23 -23 57 -23 107v240c0 48 -6 53 -71 54zM102 558l119 139h63l119 -139h-48l-103 92l-102 -92h-48z" />
    <glyph glyph-name="udieresis" unicode="&#xfc;" horiz-adv-x="519" 
d="M17 452v14c50 5 93 12 133 23v-330c0 -89 27 -124 97 -124c77 0 112 45 112 142v221c0 48 -6 53 -71 54v14c50 5 94 12 133 23v-411c0 -45 5 -49 74 -49v-14c-50 -4 -89 -12 -125 -23c-2 17 -3 37 -4 91c-33 -65 -72 -91 -134 -91c-52 0 -97 22 -121 59
c-16 23 -23 57 -23 107v240c0 48 -6 53 -71 54zM167 664c26 0 47 -21 47 -47c0 -27 -21 -48 -47 -48c-27 0 -48 21 -48 47c0 27 21 48 48 48zM340 664c26 0 47 -21 47 -47c0 -27 -21 -48 -47 -48c-27 0 -48 21 -48 47c0 27 21 48 48 48z" />
    <glyph glyph-name="Agrave" unicode="&#xc0;" horiz-adv-x="629" 
d="M415 198h-238l-36 -103c-9 -26 -12 -39 -12 -47c0 -21 16 -29 64 -31v-20c-40 5 -62 6 -91 6c-30 0 -52 -1 -92 -6v20c60 4 71 11 88 59l230 611l201 -615c15 -43 26 -50 90 -55v-20c-49 6 -75 8 -111 8s-62 -2 -111 -8v20c43 4 61 13 61 31c0 5 -4 26 -6 32zM187 226
h219l-101 323zM384 725h-50l-178 139h88z" />
    <glyph glyph-name="Atilde" unicode="&#xc3;" horiz-adv-x="629" 
d="M415 198h-238l-36 -103c-9 -26 -12 -39 -12 -47c0 -21 16 -29 64 -31v-20c-40 5 -62 6 -91 6c-30 0 -52 -1 -92 -6v20c60 4 71 11 88 59l230 611l201 -615c15 -43 26 -50 90 -55v-20c-49 6 -75 8 -111 8s-62 -2 -111 -8v20c43 4 61 13 61 31c0 5 -4 26 -6 32zM187 226
h219l-101 323zM197 748l-29 7c13 64 43 94 95 94c30 0 40 -5 91 -45c17 -12 30 -17 47 -17c32 0 53 19 59 53l27 -5c-8 -64 -41 -98 -94 -98c-29 0 -44 7 -84 39c-21 17 -35 23 -53 23c-29 0 -51 -19 -59 -51z" />
    <glyph glyph-name="Otilde" unicode="&#xd5;" horiz-adv-x="618" 
d="M309 678c159 0 259 -135 259 -348c0 -204 -102 -341 -256 -341c-159 0 -261 136 -261 347c0 207 102 342 258 342zM309 651c-116 0 -186 -119 -186 -316s72 -319 190 -319c114 0 183 119 183 315c0 201 -70 320 -187 320zM189 748l-29 7c13 64 43 94 95 94
c30 0 40 -5 91 -45c17 -12 30 -17 47 -17c32 0 53 19 59 53l27 -5c-8 -64 -41 -98 -94 -98c-29 0 -44 7 -84 39c-21 17 -35 23 -53 23c-29 0 -51 -19 -59 -51z" />
    <glyph glyph-name="ydieresis" unicode="&#xff;" horiz-adv-x="486" 
d="M228 17l-147 402c-11 32 -20 37 -74 39v17c41 -4 64 -5 93 -5s51 1 92 5v-17c-39 -2 -52 -8 -52 -21c0 -5 0 -5 7 -26l113 -309l116 308c4 13 6 19 6 25c0 16 -13 21 -58 23v17c28 -3 43 -4 72 -4c30 0 50 1 88 4v-17c-51 -5 -64 -13 -74 -40l-187 -501
c-31 -83 -71 -113 -147 -111v48c64 1 97 25 123 90zM170 664c26 0 47 -21 47 -47c0 -27 -21 -48 -47 -48c-27 0 -48 21 -48 47c0 27 21 48 48 48zM343 664c26 0 47 -21 47 -47c0 -27 -21 -48 -47 -48c-27 0 -48 21 -48 47c0 27 21 48 48 48z" />
    <glyph glyph-name="Ydieresis" unicode="&#x178;" horiz-adv-x="579" 
d="M258 292l-155 308c-19 39 -31 46 -90 50v20c52 -5 79 -7 114 -7s62 2 114 7v-20c-53 -2 -72 -10 -72 -26c0 -7 1 -9 10 -27l134 -267l136 272c4 7 7 17 7 22c0 17 -16 23 -70 26v20c41 -5 64 -6 91 -6c28 0 51 1 92 6v-20c-57 -6 -70 -13 -90 -50l-154 -308v-210
c0 -38 3 -46 24 -54c15 -6 27 -9 58 -11v-20c-58 6 -84 8 -115 8s-57 -2 -116 -8v20c31 2 43 5 58 11c21 8 24 15 24 54v210zM221 846c27 0 50 -23 50 -51s-23 -51 -51 -51s-51 23 -51 51c0 29 23 51 52 51zM397 846c27 0 50 -23 50 -51s-23 -51 -51 -51s-51 23 -51 51
c0 29 23 51 52 51z" />
    <glyph glyph-name="Acircumflex" unicode="&#xc2;" horiz-adv-x="629" 
d="M415 198h-238l-36 -103c-9 -26 -12 -39 -12 -47c0 -21 16 -29 64 -31v-20c-40 5 -62 6 -91 6c-30 0 -52 -1 -92 -6v20c60 4 71 11 88 59l230 611l201 -615c15 -43 26 -50 90 -55v-20c-49 6 -75 8 -111 8s-62 -2 -111 -8v20c43 4 61 13 61 31c0 5 -4 26 -6 32zM187 226
h219l-101 323zM160 731l127 128h74l128 -128h-51l-114 92l-113 -92h-51z" />
    <glyph glyph-name="Ecircumflex" unicode="&#xca;" horiz-adv-x="528" 
d="M477 152l-19 -152h-424v19c72 6 82 14 82 66v498c0 51 -10 59 -82 65v19h419l14 -141h-19c-25 92 -46 113 -112 113h-153v-278h155c44 0 55 16 58 82h20v-193h-20c-2 61 -17 83 -58 83h-155v-243c0 -49 15 -62 70 -62h78c59 0 78 9 98 44c12 21 21 45 29 80h19zM108 731
l127 128h74l128 -128h-51l-114 92l-113 -92h-51z" />
    <glyph glyph-name="Aacute" unicode="&#xc1;" horiz-adv-x="629" 
d="M415 198h-238l-36 -103c-9 -26 -12 -39 -12 -47c0 -21 16 -29 64 -31v-20c-40 5 -62 6 -91 6c-30 0 -52 -1 -92 -6v20c60 4 71 11 88 59l230 611l201 -615c15 -43 26 -50 90 -55v-20c-49 6 -75 8 -111 8s-62 -2 -111 -8v20c43 4 61 13 61 31c0 5 -4 26 -6 32zM187 226
h219l-101 323zM273 725l141 139h87l-178 -139h-50z" />
    <glyph glyph-name="Edieresis" unicode="&#xcb;" horiz-adv-x="528" 
d="M477 152l-19 -152h-424v19c72 6 82 14 82 66v498c0 51 -10 59 -82 65v19h419l14 -141h-19c-25 92 -46 113 -112 113h-153v-278h155c44 0 55 16 58 82h20v-193h-20c-2 61 -17 83 -58 83h-155v-243c0 -49 15 -62 70 -62h78c59 0 78 9 98 44c12 21 21 45 29 80h19zM185 846
c27 0 50 -23 50 -51s-23 -51 -51 -51s-51 23 -51 51c0 29 23 51 52 51zM361 846c27 0 50 -23 50 -51s-23 -51 -51 -51s-51 23 -51 51c0 29 23 51 52 51z" />
    <glyph glyph-name="Egrave" unicode="&#xc8;" horiz-adv-x="528" 
d="M477 152l-19 -152h-424v19c72 6 82 14 82 66v498c0 51 -10 59 -82 65v19h419l14 -141h-19c-25 92 -46 113 -112 113h-153v-278h155c44 0 55 16 58 82h20v-193h-20c-2 61 -17 83 -58 83h-155v-243c0 -49 15 -62 70 -62h78c59 0 78 9 98 44c12 21 21 45 29 80h19zM332 725
h-50l-178 139h88z" />
    <glyph glyph-name="Iacute" unicode="&#xcd;" horiz-adv-x="298" 
d="M116 82v503c0 51 -11 60 -82 65v20c58 -6 84 -8 116 -8c31 0 57 2 115 8v-20c-71 -5 -82 -13 -82 -65v-503c0 -52 10 -59 82 -65v-20c-59 6 -85 8 -115 8c-31 0 -57 -2 -116 -8v20c72 6 82 14 82 65zM95 725l120 139h85l-155 -139h-50z" />
    <glyph glyph-name="Icircumflex" unicode="&#xce;" horiz-adv-x="298" 
d="M115 82v503c0 51 -11 60 -82 65v20c58 -6 84 -8 116 -8c31 0 57 2 115 8v-20c-71 -5 -82 -13 -82 -65v-503c0 -52 10 -59 82 -65v-20c-59 6 -85 8 -115 8c-31 0 -57 -2 -116 -8v20c72 6 82 14 82 65zM-4 731l116 128h74l115 -128h-49l-103 92l-104 -92h-49z" />
    <glyph glyph-name="Idieresis" unicode="&#xcf;" horiz-adv-x="298" 
d="M116 82v503c0 51 -11 60 -82 65v20c58 -6 84 -8 116 -8c31 0 57 2 115 8v-20c-71 -5 -82 -13 -82 -65v-503c0 -52 10 -59 82 -65v-20c-59 6 -85 8 -115 8c-31 0 -57 -2 -116 -8v20c72 6 82 14 82 65zM73 846c27 0 50 -23 50 -51s-23 -51 -51 -51s-51 23 -51 51
c0 29 23 51 52 51zM227 846c27 0 50 -23 50 -51s-23 -51 -51 -51s-51 23 -51 51c0 29 23 51 52 51z" />
    <glyph glyph-name="Igrave" unicode="&#xcc;" horiz-adv-x="298" 
d="M116 82v503c0 51 -11 60 -82 65v20c58 -6 84 -8 116 -8c31 0 57 2 115 8v-20c-71 -5 -82 -13 -82 -65v-503c0 -52 10 -59 82 -65v-20c-59 6 -85 8 -115 8c-31 0 -57 -2 -116 -8v20c72 6 82 14 82 65zM203 725h-50l-155 139h84z" />
    <glyph glyph-name="Oacute" unicode="&#xd3;" horiz-adv-x="618" 
d="M309 678c159 0 259 -135 259 -348c0 -204 -102 -341 -256 -341c-159 0 -261 136 -261 347c0 207 102 342 258 342zM309 651c-116 0 -186 -119 -186 -316s72 -319 190 -319c114 0 183 119 183 315c0 201 -70 320 -187 320zM248 725l141 139h87l-178 -139h-50z" />
    <glyph glyph-name="Ocircumflex" unicode="&#xd4;" horiz-adv-x="618" 
d="M309 678c159 0 259 -135 259 -348c0 -204 -102 -341 -256 -341c-159 0 -261 136 -261 347c0 207 102 342 258 342zM309 651c-116 0 -186 -119 -186 -316s72 -319 190 -319c114 0 183 119 183 315c0 201 -70 320 -187 320zM145 731l127 128h74l128 -128h-51l-114 92
l-113 -92h-51z" />
    <glyph glyph-name="Ograve" unicode="&#xd2;" horiz-adv-x="618" 
d="M309 678c159 0 259 -135 259 -348c0 -204 -102 -341 -256 -341c-159 0 -261 136 -261 347c0 207 102 342 258 342zM309 651c-116 0 -186 -119 -186 -316s72 -319 190 -319c114 0 183 119 183 315c0 201 -70 320 -187 320zM369 725h-50l-178 139h88z" />
    <glyph glyph-name="Uacute" unicode="&#xda;" horiz-adv-x="654" 
d="M544 585v-381c0 -64 -8 -98 -31 -132c-37 -54 -102 -83 -186 -83c-72 0 -130 22 -170 65c-34 36 -46 73 -46 143v388c0 51 -11 60 -82 65v20c58 -6 84 -8 116 -8c30 0 57 2 115 8v-20c-71 -5 -82 -13 -82 -65v-390c0 -68 7 -93 33 -121c30 -30 74 -46 130 -46
c66 0 120 24 147 64c16 24 24 57 24 101v392c0 52 -11 60 -82 65v20c61 -4 80 -5 101 -5c22 0 42 1 95 5v-20c-71 -5 -82 -14 -82 -65zM282 725l141 139h87l-178 -139h-50z" />
    <glyph glyph-name="Ucircumflex" unicode="&#xdb;" horiz-adv-x="654" 
d="M544 585v-381c0 -64 -8 -98 -31 -132c-37 -54 -102 -83 -186 -83c-72 0 -130 22 -170 65c-34 36 -46 73 -46 143v388c0 51 -11 60 -82 65v20c58 -6 84 -8 116 -8c30 0 57 2 115 8v-20c-71 -5 -82 -13 -82 -65v-390c0 -68 7 -93 33 -121c30 -30 74 -46 130 -46
c66 0 120 24 147 64c16 24 24 57 24 101v392c0 52 -11 60 -82 65v20c61 -4 80 -5 101 -5c22 0 42 1 95 5v-20c-71 -5 -82 -14 -82 -65zM177 731l127 128h74l128 -128h-51l-114 92l-113 -92h-51z" />
    <glyph glyph-name="Ugrave" unicode="&#xd9;" horiz-adv-x="654" 
d="M544 585v-381c0 -64 -8 -98 -31 -132c-37 -54 -102 -83 -186 -83c-72 0 -130 22 -170 65c-34 36 -46 73 -46 143v388c0 51 -11 60 -82 65v20c58 -6 84 -8 116 -8c30 0 57 2 115 8v-20c-71 -5 -82 -13 -82 -65v-390c0 -68 7 -93 33 -121c30 -30 74 -46 130 -46
c66 0 120 24 147 64c16 24 24 57 24 101v392c0 52 -11 60 -82 65v20c61 -4 80 -5 101 -5c22 0 42 1 95 5v-20c-71 -5 -82 -14 -82 -65zM402 725h-50l-178 139h88z" />
    <glyph glyph-name="Scaron" unicode="&#x160;" horiz-adv-x="506" 
d="M59 195h19c20 -118 78 -175 177 -175c84 0 142 56 142 138c0 53 -20 83 -74 114c-12 7 -12 7 -113 57c-112 57 -140 91 -140 172c0 104 73 174 183 174c52 0 86 -13 123 -49l28 52h17v-175h-19c-27 102 -70 145 -146 145c-73 0 -131 -57 -131 -129c0 -41 19 -71 60 -96
c25 -16 26 -16 99 -52c75 -37 90 -45 116 -66c36 -29 55 -72 55 -126c0 -112 -79 -187 -195 -187c-61 0 -105 16 -150 55l-35 -59h-16v207zM419 859l-128 -128h-74l-127 128h51l113 -92l114 92h51z" />
    <glyph glyph-name="scaron" unicode="&#x161;" horiz-adv-x="417" 
d="M51 -10v162h19c8 -34 13 -51 24 -70c20 -39 63 -63 110 -63c63 0 110 41 110 95c0 34 -15 53 -56 74c-10 5 -10 5 -100 42c-75 31 -97 58 -97 119c0 77 60 131 144 131c36 0 63 -8 98 -29l14 37h17v-151h-19c-9 80 -43 118 -106 118c-55 0 -98 -38 -98 -88
c0 -33 15 -53 56 -73c15 -7 22 -11 97 -41c76 -31 102 -61 102 -120c0 -82 -67 -142 -157 -142c-43 0 -82 13 -119 39l-22 -40h-17zM359 697l-119 -139h-63l-119 139h48l102 -92l103 92h48z" />
    <glyph glyph-name="Zcaron" unicode="&#x17d;" horiz-adv-x="524" 
d="M34 0l370 639h-195c-68 0 -95 -26 -113 -109h-22l25 137h396l-370 -639h203c63 0 79 6 103 41c13 18 24 42 39 80h20l-29 -149h-427zM454 859l-128 -128h-74l-127 128h51l113 -92l114 92h51z" />
    <glyph glyph-name="zcaron" unicode="&#x17e;" horiz-adv-x="441" 
d="M37 0l281 449h-129c-63 0 -75 -12 -111 -100h-17l22 123h321l-282 -449h135c50 0 67 9 91 46c13 19 21 37 30 67h17l-24 -136h-334zM385 697l-119 -139h-63l-119 139h48l102 -92l103 92h48z" />
    <glyph glyph-name="Yacute" unicode="&#xdd;" horiz-adv-x="579" 
d="M258 292l-155 308c-19 39 -31 46 -90 50v20c52 -5 79 -7 114 -7s62 2 114 7v-20c-53 -2 -72 -10 -72 -26c0 -7 1 -9 10 -27l134 -267l136 272c4 7 7 17 7 22c0 17 -16 23 -70 26v20c41 -5 64 -6 91 -6c28 0 51 1 92 6v-20c-57 -6 -70 -13 -90 -50l-154 -308v-210
c0 -38 3 -46 24 -54c15 -6 27 -9 58 -11v-20c-58 6 -84 8 -115 8s-57 -2 -116 -8v20c31 2 43 5 58 11c21 8 24 15 24 54v210zM250 725l141 139h87l-178 -139h-50z" />
    <glyph glyph-name="yacute" unicode="&#xfd;" horiz-adv-x="486" 
d="M228 17l-147 402c-11 32 -20 37 -74 39v17c41 -4 64 -5 93 -5s51 1 92 5v-17c-39 -2 -52 -8 -52 -21c0 -5 0 -5 7 -26l113 -309l116 308c4 13 6 19 6 25c0 16 -13 21 -58 23v17c28 -3 43 -4 72 -4c30 0 50 1 88 4v-17c-51 -5 -64 -13 -74 -40l-187 -501
c-31 -83 -71 -113 -147 -111v48c64 1 97 25 123 90zM200 552l113 150h79l-147 -150h-45z" />
    <glyph glyph-name="Ccedilla" unicode="&#xc7;" horiz-adv-x="584" 
d="M322 -11l-24 -49c60 -6 88 -29 88 -72c0 -45 -39 -79 -92 -79c-25 0 -50 5 -78 15v32c25 -6 35 -8 50 -8c36 0 59 18 59 47c0 31 -22 43 -82 45l36 71c-140 18 -228 151 -228 345c0 101 27 190 77 255c42 56 107 87 184 87c63 0 107 -16 149 -55l36 52h17v-184h-19
c-28 109 -84 160 -176 160c-125 0 -196 -115 -196 -317c0 -196 72 -312 193 -312c63 0 117 34 144 90c15 33 21 60 24 108h37c-4 -137 -79 -225 -199 -231z" />
    <glyph glyph-name="ccedilla" unicode="&#xe7;" horiz-adv-x="424" 
d="M248 -8l-26 -54c58 -7 84 -28 84 -67c0 -44 -37 -73 -92 -73c-26 0 -44 4 -72 15v29c28 -8 36 -9 51 -9c33 0 54 17 54 44c0 29 -22 41 -78 45l37 68c-48 12 -69 23 -94 46c-46 43 -70 111 -70 196c0 150 76 251 190 251c40 0 66 -11 96 -41l25 50h17v-156h-20
c-7 33 -12 48 -24 68c-19 33 -54 54 -90 54c-78 0 -123 -84 -123 -226c0 -141 40 -212 120 -212c62 0 96 42 109 134h40c-8 -93 -64 -162 -134 -162z" />
    <glyph glyph-name="degree" unicode="&#xb0;" 
d="M250 678c77 0 139 -60 139 -135s-62 -136 -139 -136s-139 61 -139 137c0 73 63 134 139 134zM250 638c-53 0 -97 -43 -97 -94c0 -54 43 -97 97 -97c53 0 97 43 97 96c0 52 -44 95 -97 95z" />
    <glyph glyph-name="registered" unicode="&#xae;" horiz-adv-x="778" 
d="M389 678c190 0 344 -154 344 -344c0 -193 -154 -345 -349 -345c-186 0 -340 156 -340 345c0 190 154 344 345 344zM388 645c-172 0 -311 -139 -311 -311c0 -171 140 -312 308 -312c176 0 315 138 315 312c0 171 -140 311 -312 311zM326 324v-139c0 -29 5 -32 51 -36v-18
c-40 4 -57 5 -75 5s-35 -1 -74 -5v18c45 4 50 7 50 36v295c0 28 -7 32 -50 35v18h163c37 0 62 -6 83 -19c29 -19 47 -52 47 -86c0 -51 -30 -84 -91 -101c20 -11 26 -18 39 -45l46 -103c13 -26 17 -28 51 -29v-19c-18 2 -28 2 -40 2c-11 0 -21 0 -39 -2l-67 148
c-17 38 -28 45 -70 45h-24zM326 347h56c59 0 91 29 91 84c0 53 -29 79 -88 79h-59v-163z" />
    <glyph glyph-name="copyright" unicode="&#xa9;" horiz-adv-x="778" 
d="M389 678c190 0 344 -154 344 -344c0 -193 -154 -345 -349 -345c-186 0 -340 156 -340 345c0 190 154 344 345 344zM388 645c-172 0 -311 -139 -311 -311c0 -171 140 -312 308 -312c176 0 315 138 315 312c0 171 -140 311 -312 311zM497 270h29c-4 -92 -52 -143 -134 -143
c-98 0 -164 83 -164 208c0 123 66 205 165 205c37 0 68 -10 92 -31l22 29h15v-115h-18c-17 65 -50 94 -106 94c-76 0 -119 -66 -119 -183c0 -114 43 -181 117 -181c61 0 97 42 101 117z" />
    <glyph glyph-name="trademark" unicode="&#x2122;" horiz-adv-x="842" 
d="M188 644v-326c0 -28 5 -32 51 -35v-19c-41 4 -57 5 -75 5s-34 -1 -74 -5v19c45 3 50 7 50 35v326h-35c-40 0 -50 -10 -69 -67h-20l17 90h265l18 -90h-19c-17 57 -27 67 -65 67h-44zM450 612l-15 -294v-5c0 -22 8 -27 51 -30v-18c-33 2 -48 3 -64 3c-17 0 -31 -1 -64 -3
v18c43 3 48 6 50 35l16 298v5c0 21 -10 27 -51 30v18c22 -2 31 -2 46 -2c22 0 35 1 57 3l114 -308l117 308c29 -2 40 -3 57 -3c15 0 24 0 46 2v-18c-40 -3 -51 -8 -51 -26v-9l7 -298c0 -28 7 -32 51 -35v-18c-41 3 -57 4 -75 4s-34 -1 -75 -4v18c40 1 51 8 51 30v5l-5 296
l-126 -336h-13z" />
    <glyph glyph-name="notequal" unicode="&#x2260;" 
d="M277 431l56 120l29 -13l-49 -107h159v-32h-174l-50 -105h225v-32h-239l-61 -131l-29 13l54 118h-170v32h185l50 105h-236v32h250z" />
    <glyph glyph-name="infinity" unicode="&#x221e;" horiz-adv-x="667" 
d="M321 299c-26 -42 -33 -52 -48 -71c-28 -34 -66 -53 -107 -53c-82 0 -148 69 -148 155c0 91 69 166 154 166c59 0 115 -42 167 -125c5 8 9 14 14 20c44 67 44 67 67 82c24 16 50 24 77 24c84 0 152 -71 152 -159c0 -92 -71 -167 -159 -167c-61 0 -123 47 -169 128z
M349 355c31 -49 49 -72 73 -93c31 -26 66 -41 99 -41c59 0 103 49 103 114c0 69 -52 115 -129 115c-63 0 -102 -25 -146 -95zM309 317c-26 40 -38 56 -57 76c-31 33 -71 52 -110 52c-57 0 -100 -48 -100 -112c0 -67 51 -112 126 -112c60 0 96 25 141 96z" />
    <glyph glyph-name="plusminus" unicode="&#xb1;" horiz-adv-x="516" 
d="M56 34v52h403v-52h-403zM56 313v50h176v173h52v-173h175v-50h-175v-174h-52v174h-176z" />
    <glyph glyph-name="lessequal" unicode="&#x2264;" 
d="M456 607v-29l-332 -218l332 -221v-78l-411 273v6zM44 28h412v-28h-412v28z" />
    <glyph glyph-name="greaterequal" unicode="&#x2265;" 
d="M44 28h412v-28h-412v28zM44 61v30l332 217l-332 221v78l411 -274v-6z" />
    <glyph glyph-name="mu" unicode="&#xb5;" horiz-adv-x="432" 
d="M438 51v-15l-65 -45c-1 -1 -2 -1 -4 -1c-13 1 -29 12 -36 25c-7 15 -9 24 -13 63c-77 -74 -110 -92 -164 -92c-56 0 -93 30 -110 90v-35c0 -43 0 -50 4 -90c5 -51 7 -75 7 -90c0 -29 -12 -49 -29 -49c-15 0 -29 20 -29 42c0 11 3 34 6 59c16 98 27 256 27 378v167h51
v-287c0 -67 6 -93 29 -117c16 -16 42 -26 69 -26c55 0 95 26 137 87v343h51v-346c0 -58 8 -74 38 -74c10 0 17 3 31 13z" />
    <glyph glyph-name="partialdiff" unicode="&#x2202;" 
d="M150 666l10 17c63 -27 117 -63 161 -106c83 -82 145 -232 145 -352c0 -138 -92 -239 -218 -239c-119 0 -213 101 -213 228c0 129 93 229 214 229c70 0 116 -26 155 -87c-46 152 -119 241 -254 310zM254 422c-29 0 -63 -12 -88 -30c-43 -33 -74 -108 -74 -178
c0 -115 69 -207 156 -207c91 0 161 92 161 212c0 118 -65 203 -155 203z" />
    <glyph glyph-name="summation" unicode="&#x2211;" horiz-adv-x="667" 
d="M63 667h501v-154h-18c-13 104 -48 131 -172 131h-234l210 -401l-234 -441h266c84 0 123 13 158 51c22 25 37 55 47 98h18l-33 -184h-509l239 449z" />
    <glyph glyph-name="product" unicode="&#x220f;" horiz-adv-x="667" 
d="M32 667h602v-18h-23c-59 0 -66 -8 -66 -80v-704c0 -71 7 -80 64 -80h25v-18h-235v18h21c61 0 67 8 67 80v704c0 72 -6 80 -67 80h-172c-60 0 -67 -8 -67 -80v-704c0 -71 7 -80 65 -80h24v-18h-235v18h21c60 0 67 8 67 80v704c0 72 -6 80 -67 80h-24v18z" />
    <glyph glyph-name="pi" unicode="&#x3c0;" 
d="M552 464v-42h-161c-28 -71 -38 -105 -38 -135v-162c0 -76 6 -91 39 -91c12 0 18 2 51 12v-16l-89 -39c-5 -2 -9 -3 -11 -3c-9 0 -22 15 -31 32c-10 19 -12 30 -12 61v160c0 42 6 63 31 114c6 12 6 12 11 25c13 28 13 28 21 42h-176l-1 -129c-1 -40 -9 -162 -14 -212
c-8 -74 -17 -97 -35 -97c-13 0 -27 18 -27 36c0 10 3 27 9 45c25 77 35 168 41 357c-76 2 -113 -19 -165 -91l-10 13l73 89c19 23 40 31 87 31h407z" />
    <glyph glyph-name="integral" unicode="&#x222b;" horiz-adv-x="501" 
d="M280 450v-426c0 -117 -8 -166 -33 -213c-27 -50 -67 -77 -114 -77c-58 0 -107 44 -107 97c0 29 19 50 46 50c24 0 43 -18 43 -41c0 -5 -1 -12 -3 -18c-4 -9 -4 -10 -4 -19c0 -19 11 -30 29 -30c49 0 85 81 85 190v436c0 118 7 166 33 214c27 50 67 77 114 77
c59 0 107 -44 107 -98c0 -28 -20 -49 -46 -49c-24 0 -43 18 -43 41c0 6 1 12 3 18c3 8 4 11 4 19c0 19 -11 30 -29 30c-50 0 -85 -83 -85 -201z" />
    <glyph glyph-name="Omega" unicode="&#x3a9;" horiz-adv-x="667" 
d="M682 108l-38 -108h-270v33c76 36 109 59 145 104c50 62 77 138 77 216s-29 161 -76 218c-44 52 -111 82 -186 82c-92 0 -164 -40 -211 -119c-33 -54 -51 -117 -51 -179c0 -97 42 -192 113 -256c28 -26 52 -40 108 -66v-33h-270l-38 108h18c20 -57 47 -72 125 -73l107 -2
v5c-67 28 -96 47 -134 85c-62 64 -97 148 -97 231c0 92 48 192 122 254c56 46 125 70 208 70c108 0 195 -40 257 -121c46 -59 72 -132 72 -201c0 -103 -52 -203 -137 -267c-26 -20 -46 -30 -94 -51v-4l110 1c76 1 102 16 122 73h18z" />
    <glyph glyph-name="logicalnot" unicode="&#xac;" 
d="M391 0v235h-353v32h425v-267h-72z" />
    <glyph glyph-name="radical" unicode="&#x221a;" horiz-adv-x="667" 
d="M650 823v-24h-122l-185 -799h-63l-87 363h-176v24h228l79 -337l181 773h145z" />
    <glyph glyph-name="approxequal" unicode="&#x2248;" 
d="M459 468l13 -7c-36 -55 -93 -91 -141 -91c-19 0 -31 3 -69 15c-65 20 -95 27 -124 27c-37 0 -53 -10 -97 -61l-13 7c46 63 93 92 145 92c23 0 45 -5 96 -22c42 -14 62 -18 83 -18c40 0 76 20 107 58zM459 316l13 -7c-37 -55 -93 -91 -141 -91c-19 0 -32 3 -69 15
c-66 21 -95 28 -124 28c-37 0 -53 -10 -97 -62l-13 8c46 63 93 92 145 92c23 0 45 -5 96 -22c42 -15 62 -19 83 -19c40 0 76 20 107 58z" />
    <glyph glyph-name="Delta" unicode="&#x394;" horiz-adv-x="667" 
d="M345 684l308 -684h-639l308 684h23zM319 607l-217 -480c-11 -26 -15 -38 -15 -51c0 -25 13 -35 45 -35h438z" />
    <glyph glyph-name="divide" unicode="&#xf7;" horiz-adv-x="516" 
d="M258 256c25 0 45 -20 45 -45c0 -26 -20 -46 -45 -46s-46 20 -46 45c0 26 20 46 46 46zM258 510c25 0 45 -20 45 -45c0 -26 -20 -46 -45 -46c-26 0 -46 20 -46 45c0 26 20 46 46 46zM56 313v50h403v-50h-403z" />
    <glyph glyph-name="lozenge" unicode="&#x25ca;" horiz-adv-x="667" 
d="M334 693l259 -359l-259 -360l-260 360zM334 604l-197 -270l197 -271l197 271z" />
    <glyph glyph-name="apple" unicode="&#xf8ff;" horiz-adv-x="667" 
d="M481 691v-10c0 -52 -23 -99 -65 -132c-31 -24 -50 -31 -84 -31c-1 91 60 163 149 173zM624 457c-58 -45 -81 -84 -81 -139c0 -67 37 -123 100 -149c-51 -125 -113 -196 -170 -196c-19 0 -19 0 -81 27c-5 2 -16 3 -37 3c-35 0 -35 0 -89 -23c-14 -5 -27 -8 -39 -8
c-87 0 -194 186 -194 335c0 87 40 166 101 199c24 13 54 20 86 20c24 0 44 -4 77 -17c21 -8 38 -13 47 -13c12 0 26 3 44 10c51 19 62 22 91 22c62 0 110 -24 145 -71z" />
    <glyph glyph-name="brokenbar" unicode="&#xa6;" 
d="M231 667h39v-328h-39v328zM231 153h39v-320h-39v320z" />
    <glyph glyph-name="Eth" unicode="&#xd0;" horiz-adv-x="627" 
d="M111 332h-82v33h82v218c0 51 -10 59 -82 65v19h231c97 0 153 -17 204 -62c70 -63 112 -165 112 -273s-42 -210 -111 -269c-50 -43 -111 -63 -194 -63h-242v19c72 6 82 14 82 66v247zM178 639v-274h166v-33h-166v-251c0 -49 8 -55 72 -55c170 0 254 101 254 307
c0 106 -24 188 -72 243c-37 44 -89 63 -167 63h-87z" />
    <glyph glyph-name="eth" unicode="&#xf0;" horiz-adv-x="456" 
d="M145 657l22 15l52 -67l79 50l18 -28l-76 -48l88 -112c62 -80 85 -143 85 -237c0 -143 -74 -238 -184 -238c-111 0 -187 101 -187 248c0 143 76 240 188 240c11 0 19 -1 34 -3l-55 82l-74 -46l-17 27l74 46zM227 455c-76 0 -118 -74 -118 -207c0 -150 42 -231 121 -231
c76 0 117 73 117 205c0 151 -42 233 -120 233z" />
    <glyph glyph-name="Thorn" unicode="&#xde;" horiz-adv-x="528" 
d="M183 208v-126c0 -52 10 -59 82 -65v-20c-59 6 -85 8 -115 8c-31 0 -57 -2 -116 -8v20c72 6 82 14 82 65v503c0 51 -11 60 -82 65v20c58 -6 84 -8 116 -8c31 0 57 2 115 8v-20c-71 -5 -82 -13 -82 -65v-18h104c68 0 109 -10 144 -36c43 -32 69 -88 69 -147
c0 -108 -79 -176 -205 -176h-112zM183 236h94c47 0 79 9 103 28c34 26 53 72 53 126c0 47 -14 88 -39 114c-24 25 -55 35 -110 35h-101v-303z" />
    <glyph glyph-name="thorn" unicode="&#xfe;" horiz-adv-x="510" 
d="M160 675v-274c30 54 70 79 127 79c107 0 181 -99 181 -243c0 -145 -73 -245 -180 -245c-58 0 -95 26 -128 89v-214c0 -40 10 -48 71 -51v-17c-50 5 -73 6 -102 6c-28 0 -52 -1 -103 -6v17c61 3 72 11 72 51v717c0 48 -7 54 -71 54v14c48 5 96 13 133 23zM279 452
c-77 0 -120 -73 -120 -206c0 -147 43 -226 123 -226c78 0 119 75 119 217c0 137 -44 215 -122 215z" />
    <glyph glyph-name="minus" unicode="&#x2212;" horiz-adv-x="516" 
d="M56 313v50h403v-50h-403z" />
    <glyph glyph-name="multiply" unicode="&#xd7;" horiz-adv-x="516" 
d="M78 481l37 37l145 -145l144 144l34 -34l-144 -144l145 -145l-37 -37l-145 145l-144 -144l-34 34l144 144z" />
    <glyph glyph-name="onesuperior" unicode="&#xb9;" horiz-adv-x="337" 
d="M196 672v-359c0 -29 4 -31 50 -35v-18c-31 2 -44 3 -73 3c-30 0 -44 -1 -75 -3v18c47 4 51 6 51 35v274h-70v18c52 3 87 28 96 67h21z" />
    <glyph glyph-name="twosuperior" unicode="&#xb2;" horiz-adv-x="337" 
d="M281 300l-4 -39h-232v28c44 52 82 99 110 135c59 80 75 109 75 140c0 36 -27 61 -65 61c-30 0 -57 -14 -71 -37c-8 -13 -12 -25 -15 -51h-24c4 43 10 64 25 83c19 24 53 38 92 38c62 0 108 -38 108 -91c0 -45 -25 -82 -184 -267h185z" />
    <glyph glyph-name="threesuperior" unicode="&#xb3;" horiz-adv-x="337" 
d="M42 377h25c1 -25 3 -35 9 -49c11 -27 38 -43 74 -43c54 0 88 34 88 87c0 40 -17 68 -47 79c-14 6 -29 7 -61 8v26h10c50 0 83 30 83 77c0 41 -25 66 -67 66c-46 0 -73 -25 -82 -77h-23c8 72 45 107 114 107c62 0 106 -39 106 -95c0 -41 -20 -66 -68 -88
c59 -19 85 -50 85 -101c0 -68 -54 -118 -129 -118c-77 0 -116 40 -117 121z" />
    <glyph glyph-name="onehalf" unicode="&#xbd;" horiz-adv-x="716" 
d="M196 672v-359c0 -28 4 -31 50 -35v-18c-31 2 -44 3 -74 3s-43 -1 -74 -3v18c47 4 51 6 51 35v274h-70v18c52 3 87 28 96 67h21zM147 0l384 653h39l-385 -653h-38zM661 39l-4 -39h-232v28c49 58 82 99 110 136c59 79 75 108 75 139c0 36 -27 61 -65 61
c-29 0 -57 -14 -71 -37c-8 -13 -12 -25 -15 -51h-24c4 43 10 64 25 82c19 25 54 39 92 39c62 0 108 -39 108 -90c0 -46 -26 -83 -184 -268h185z" />
    <glyph glyph-name="onequarter" unicode="&#xbc;" horiz-adv-x="716" 
d="M196 672v-359c0 -29 4 -31 50 -35v-18c-31 2 -44 3 -73 3c-30 0 -44 -1 -75 -3v18c47 4 51 6 51 35v274h-70v18c52 3 87 28 96 67h21zM147 0l385 653h38l-385 -653h-38zM576 -11v117h-173l179 295h42v-257h69v-38h-69v-117h-48zM577 144v205l-122 -205h122z" />
    <glyph glyph-name="threequarters" unicode="&#xbe;" horiz-adv-x="716" 
d="M42 377h25c1 -25 3 -35 9 -49c11 -27 38 -43 74 -43c54 0 88 34 88 87c0 40 -17 68 -47 79c-14 6 -29 7 -61 8v26h10c50 0 83 30 83 77c0 41 -25 66 -67 66c-46 0 -73 -25 -82 -77h-23c8 72 45 107 114 107c62 0 106 -39 106 -95c0 -41 -20 -66 -68 -88
c59 -19 85 -50 85 -101c0 -68 -54 -118 -129 -118c-77 0 -116 40 -117 121zM147 0l384 653h38l-384 -653h-38zM576 -11v117h-173l179 295h42v-257h68v-38h-68v-117h-48zM577 144v205l-122 -205h122z" />
    <glyph glyph-name="middot" horiz-adv-x="217" 
d="M109 293c27 0 48 -22 48 -48c0 -27 -22 -49 -48 -49c-27 0 -49 22 -49 49s22 48 49 48z" />
    </font>
</defs>
</svg>
