<?xml version="1.0" standalone="no"?>
<!DOCTYPE svg PUBLIC "-//W3C//DTD SVG 1.1//EN" "http://www.w3.org/Graphics/SVG/1.1/DTD/svg11.dtd" >
<svg xmlns="http://www.w3.org/2000/svg" xmlns:xlink="http://www.w3.org/1999/xlink" version="1.1">
<metadata>
Created by FontForge 20170910 at Wed Sep 16 13:43:33 1998
 By Jimmy Wärting
Copyright 1998 by (URW)++ Design &#38; Development GmbH
</metadata>
<defs>
<font id="CorporateA-Bold" horiz-adv-x="1024" >
  <font-face 
    font-family="CorpoA"
    font-weight="700"
    font-stretch="normal"
    units-per-em="2048"
    panose-1="0 0 0 0 0 0 0 0 0 0"
    ascent="1638"
    descent="-410"
    x-height="967"
    cap-height="1372"
    bbox="-373 -533 1988 1812"
    underline-thickness="113"
    underline-position="-296"
    unicode-range="U+0020-F002"
  />
<missing-glyph horiz-adv-x="512" 
d="M51 0v1365h410v-1365h-410zM410 51v1263h-308v-1263h308z" />
    <glyph glyph-name=".notdef" horiz-adv-x="512" 
d="M51 0v1365h410v-1365h-410zM410 51v1263h-308v-1263h308z" />
    <glyph glyph-name="glyph1" horiz-adv-x="0" 
 />
    <glyph glyph-name="glyph2" horiz-adv-x="512" 
 />
    <glyph glyph-name="space" unicode=" " horiz-adv-x="512" 
 />
    <glyph glyph-name="exclam" unicode="!" horiz-adv-x="581" 
d="M220 458l-74 904h289l-74 -904h-141zM293 301q64 0 112 -47q47 -47 47 -114q0 -68 -47 -115q-48 -47 -114 -47q-67 0 -115 47q-47 48 -47 114q0 69 47 115q49 47 117 47z" />
    <glyph glyph-name="quotedbl" unicode="&#x22;" horiz-adv-x="740" 
d="M280 818h-139l-32 547h203zM599 818h-139l-32 547h204z" />
    <glyph glyph-name="numbersign" unicode="#" horiz-adv-x="1231" 
d="M1124 567l-24 -151h-225l-66 -416h-174l66 416h-260l-66 -416h-173l66 416h-227l24 151h227l40 257h-226l23 151h227l62 390h174l-62 -390h260l62 390h174l-62 -390h225l-24 -151h-225l-41 -257h225zM766 824h-260l-41 -257h260z" />
    <glyph glyph-name="dollar" unicode="$" horiz-adv-x="1107" 
d="M521 51v529l-38 14q-184 71 -243 106q-74 45 -114.5 123.5t-40.5 177.5q0 241 234 342q86 38 202 45v170h68v-171q171 -10 295 -119l62 131h43v-423h-65q-30 162 -114 246t-221 90v-467q167 -58 248 -102q206 -113 206 -338q0 -150 -86 -259q-124 -157 -368 -169v-169
h-68v172q-164 14 -320 134l-84 -157h-43v492h65q25 -216 168 -322q97 -69 214 -76zM589 53q80 11 130 49q92 69 92 205q0 121 -92 186q-41 28 -130 61v-501zM521 1306q-63 -12 -106 -42q-94 -64 -94 -186q0 -115 97 -167q38 -19 103 -42v437z" />
    <glyph glyph-name="percent" unicode="%" horiz-adv-x="1369" 
d="M369 1376q127 0 211 -96q81 -93 81 -230q0 -134 -81 -230q-86 -102 -218 -102q-143 0 -229 108q-72 89 -72 217q0 134 78 226q91 107 230 107zM361 1313q-62 0 -91.5 -65.5t-29.5 -203.5q0 -123 25 -190q27 -73 99 -73t97 78q21 67 21 188q0 127 -24 192q-27 74 -97 74z
M235 0l792 1365h107l-793 -1365h-106zM1015 647q127 0 211 -96q81 -92 81 -230q0 -134 -81 -230q-86 -102 -218 -102q-142 0 -229 108q-72 89 -72 217q0 134 78 226q90 107 230 107zM1007 585q-121 0 -121 -268q0 -124 25 -192q27 -73 98 -73q73 0 98 78q21 67 21 189
q0 127 -23 191q-28 75 -98 75z" />
    <glyph glyph-name="ampersand" unicode="&#x26;" horiz-adv-x="1283" 
d="M642 720l312 -415q42 56 66.5 114.5t24.5 104.5q0 40 -40 52q-21 6 -69 8v75q109 -8 156 -8q48 0 156 8v-75q-63 -4 -86 -18q-17 -11 -25 -37q-2 -5 -13 -53q-33 -141 -110 -243l61 -82q49 -65 81 -82q30 -15 90 -18v-58q-98 8 -159 8t-159 -8l-71 92q-71 -47 -115 -65
q-100 -43 -238 -43q-199 0 -327 100q-126 99 -126 276q0 178 131 296q50 45 151 115q-53 75 -74 107q-55 87 -55 177q0 125 102 208q106 86 250 86q134 0 218 -81t84 -206q0 -121 -89 -219q-47 -53 -127 -116zM516 880q190 135 190 250q0 58 -34 96q-38 41 -101 41
q-69 0 -117 -48q-47 -46 -47 -117q0 -60 47 -134q21 -34 62 -88zM471 592q-180 -120 -180 -273q0 -119 84 -185q69 -56 183 -56q117 0 243 74z" />
    <glyph glyph-name="quotesingle" unicode="'" horiz-adv-x="421" 
d="M280 818h-139l-32 547h204z" />
    <glyph glyph-name="parenleft" unicode="(" horiz-adv-x="697" 
d="M516 1399h69q-91 -153 -135 -306q-78 -278 -78 -610q0 -331 78 -609q44 -155 135 -306h-69q-373 333 -373 915q0 576 373 916z" />
    <glyph glyph-name="parenright" unicode=")" horiz-adv-x="697" 
d="M181 -432h-69q91 152 134 306q79 277 79 609q0 343 -79 610q-46 158 -134 306h69q127 -117 207 -248q166 -277 166 -668q0 -581 -373 -915z" />
    <glyph glyph-name="asterisk" unicode="*" horiz-adv-x="1107" 
d="M502 1086l-16 245h136l-16 -245l228 91l42 -129l-238 -61l157 -189l-110 -80l-131 208l-131 -208l-110 80l157 189l-238 61l42 129z" />
    <glyph glyph-name="plus" unicode="+" horiz-adv-x="1108" 
d="M95 604v170h370v366h177v-366h371v-170h-371v-367h-177v367h-370z" />
    <glyph glyph-name="comma" unicode="," horiz-adv-x="538" 
d="M155 -465h-104q161 202 202 459q-55 2 -91 28q-56 41 -56 121q0 73 49 118q45 42 115 42q75 0 120 -50q45 -49 45 -144q0 -272 -280 -574z" />
    <glyph glyph-name="hyphen" unicode="-" horiz-adv-x="545" 
d="M0 469v107h545v-107h-545z" />
    <glyph glyph-name="period" unicode="." horiz-adv-x="537" 
d="M271 300q64 0 112 -47q47 -47 47 -114t-47 -114q-48 -47 -114 -47t-114 47q-47 48 -47 114q0 68 47 114q49 47 116 47z" />
    <glyph glyph-name="slash" unicode="/" horiz-adv-x="911" 
d="M-183 -398l902 1763h172l-902 -1763h-172z" />
    <glyph glyph-name="zero" unicode="0" horiz-adv-x="1107" 
d="M562 1354q96 0 181 -43t139 -117q67 -94 104 -232.5t37 -295.5q0 -306 -127 -507q-113 -181 -340 -181q-232 0 -349 186q-123 195 -123 497q0 323 125 513q61 92 162 140q87 40 191 40zM554 1289q-210 0 -210 -631q0 -288 51 -462q44 -153 159 -153q118 0 161 162
q48 178 48 458q0 323 -52 480q-49 146 -157 146z" />
    <glyph glyph-name="one" unicode="1" horiz-adv-x="1107" 
d="M706 1388v-1176q1 -71 15 -97q18 -33 84 -41q32 -4 74 -5v-76q-173 15 -305 15q-133 0 -305 -15v76q89 3 122 16q38 16 46 59q5 22 5 68v881h-228v72q135 11 248 66q120 64 172 157h72z" />
    <glyph glyph-name="two" unicode="2" horiz-adv-x="1107" 
d="M982 226l-38 -226h-821v199q205 208 206 209q347 370 347 571q0 88 -57 144q-59 57 -152 57q-121 0 -188 -88q-35 -47 -56 -143h-95q11 89 25 137q40 145 164 213q101 55 235 55q161 0 266 -80q125 -95 125 -252q0 -129 -98 -267q-102 -145 -303 -341q-41 -41 -196 -188
h636z" />
    <glyph glyph-name="three" unicode="3" horiz-adv-x="1108" 
d="M94 378h90q15 -83 48 -131q69 -98 222 -98q123 0 198 65q78 68 78 190q0 176 -153 224q-67 21 -195 21h-41v85h41q137 0 190 32q99 59 99 195q0 105 -60 167q-57 58 -146 58q-119 0 -186 -89q-31 -41 -53 -124h-89q38 381 410 381q181 0 286 -98q98 -92 98 -238
q0 -222 -240 -308q115 -27 178 -72q121 -85 121 -254q0 -180 -140 -296q-132 -110 -330 -110q-128 0 -226 51.5t-149 146.5q-44 80 -51 202z" />
    <glyph glyph-name="four" unicode="4" horiz-adv-x="1107" 
d="M558 -14v334h-531l505 1054h290v-867h227v-187h-227v-334h-264zM568 507v756l-354 -756h354z" />
    <glyph glyph-name="five" unicode="5" horiz-adv-x="1107" 
d="M896 1121h-590l-58 -352q142 133 335 133q184 0 298 -116q116 -119 116 -312t-115 -334q-133 -162 -358 -162q-243 0 -354 185q-52 85 -59 209h92q38 -220 256 -220q137 0 205 93q66 89 66 223q0 133 -70 209q-72 78 -184 78q-146 0 -254 -147l-87 13l117 711h682z" />
    <glyph glyph-name="six" unicode="6" horiz-adv-x="1107" 
d="M734 1390h117q-114 -104 -227 -246q-115 -148 -169 -266q91 42 179 42q154 0 256 -113q124 -138 124 -343q0 -201 -132 -342q-134 -144 -331 -144q-211 0 -344 160q-114 138 -114 336q0 318 336 655q139 140 305 261zM555 826q-52 0 -93.5 -29.5t-62.5 -80.5
q-39 -100 -39 -276q0 -178 38 -282q40 -113 154 -113q115 0 158 116q37 97 37 262q0 197 -41 300q-42 103 -151 103z" />
    <glyph glyph-name="seven" unicode="7" horiz-adv-x="1107" 
d="M192 0l580 1120h-684v212h921l-596 -1332h-221z" />
    <glyph glyph-name="eight" unicode="8" horiz-adv-x="1107" 
d="M765 701q89 -41 137 -90q94 -96 94 -249q0 -170 -113 -274q-119 -110 -322 -110q-208 0 -336 116q-114 103 -114 266q0 139 77 232q48 59 150 109q-80 39 -121 82q-82 88 -82 221q0 149 101 242q117 108 323 108q183 0 289 -87q118 -98 118 -266q0 -120 -71 -205
q-43 -52 -130 -95zM556 660q-97 0 -145 -92q-41 -78 -41 -212q0 -313 187 -313q180 0 180 309q0 308 -181 308zM552 1289q-157 0 -157 -285q0 -277 161 -277q150 0 150 259q0 138 -31 217q-33 86 -123 86z" />
    <glyph glyph-name="nine" unicode="9" horiz-adv-x="1108" 
d="M377 -59h-117q115 105 233 257q107 140 160 256q-90 -42 -179 -42q-152 0 -253 113q-124 138 -124 343q0 201 131 342q133 144 330 144q209 0 341 -159q114 -138 114 -337q0 -441 -636 -917zM553 1287q-110 0 -153 -116q-36 -97 -36 -265q0 -189 41 -297
q40 -103 146 -103q115 0 158 110q38 100 38 270q0 187 -38 288q-41 113 -156 113z" />
    <glyph glyph-name="colon" unicode=":" horiz-adv-x="537" 
d="M271 300q64 0 112 -47q47 -47 47 -114t-47 -114q-48 -47 -114 -47t-114 47q-47 48 -47 114q0 68 47 114q49 47 116 47zM271 937q65 0 112 -47t47 -114t-47 -114q-48 -47 -114 -47q-67 0 -114 47q-47 48 -47 114q0 68 47 114q48 47 116 47z" />
    <glyph glyph-name="semicolon" unicode=";" horiz-adv-x="538" 
d="M272 937q65 0 112 -47t47 -114t-47 -114t-114 -47q-66 0 -114 47q-47 47 -47 114q0 68 47 114q49 47 116 47zM155 -465h-104q161 202 202 459q-55 2 -91 28q-56 41 -56 121q0 73 49 118q45 42 115 42q75 0 120 -50q45 -49 45 -144q0 -272 -280 -574z" />
    <glyph glyph-name="less" unicode="&#x3c;" 
d="M939 1272v-98l-589 -379l589 -396v-261l-854 576v15z" />
    <glyph glyph-name="equal" unicode="=" horiz-adv-x="1108" 
d="M95 757v158h918v-158h-918zM95 463v158h918v-158h-918z" />
    <glyph glyph-name="greater" unicode="&#x3e;" 
d="M85 138v98l589 380l-589 396v260l854 -576v-14z" />
    <glyph glyph-name="question" unicode="?" horiz-adv-x="875" 
d="M414 452h-90q-2 51 -2 75q0 91 23 154t126 181q57 65 75 104q22 46 22 93q0 83 -62 127q-45 32 -112 32q-116 0 -181 -84q-36 -47 -49 -145h-81q1 173 77 265q108 129 313 129q148 0 239 -78q106 -91 106 -247q0 -129 -93 -228q-37 -40 -169 -131q-141 -93 -142 -247z
M390 301q64 0 112 -47q47 -47 47 -114q0 -68 -47 -115q-48 -47 -115 -47q-66 0 -114 47q-47 48 -47 114q0 69 47 115q49 47 117 47z" />
    <glyph glyph-name="at" unicode="@" horiz-adv-x="1484" 
d="M1278 357h125q-49 -88 -91 -138t-110 -100q-187 -140 -412 -140q-232 0 -421 125q-160 106 -238 280q-61 137 -61 290q0 217 116 397q106 162 283 246q146 69 311 69q272 0 464 -174q170 -153 170 -391q0 -221 -137 -372q-85 -94 -190 -139q-60 -26 -115 -26
q-84 0 -122 62q-20 32 -30 102q-52 -71 -83 -97q-66 -57 -145 -57q-115 0 -194 90q-68 77 -68 191q0 187 143 325q126 122 274 122q132 0 166 -141l33 123h184l-148 -546q-9 -35 -9 -57q0 -52 45 -52q39 0 88.5 39t95.5 105q104 152 104 318q0 209 -171 346
q-146 117 -349 117q-241 0 -404 -146q-92 -82 -143 -201t-51 -250q0 -225 138 -383q76 -87 189 -140q136 -64 292 -64q282 0 471 267zM769 963q-47 0 -95 -47t-89 -133q-70 -149 -70 -283q0 -61 28 -103q29 -44 78 -44q103 0 186 182q35 76 54 170q14 69 14 119q0 55 -22 92
q-28 47 -84 47z" />
    <glyph glyph-name="A" unicode="A" horiz-adv-x="1391" 
d="M830 370h-448l-55 -145q-23 -63 -23 -91q0 -46 52 -56q25 -6 92 -9v-76q-136 10 -214 10q-77 0 -214 -10v76q52 3 78 9q67 15 110 88q28 47 52 109l454 1145l450 -1206q36 -95 84 -121q41 -20 122 -24v-76q-160 15 -309 15t-310 -15v76q77 4 101 8q46 10 46 48
q0 13 -15 77zM415 454h389l-179 537z" />
    <glyph glyph-name="B" unicode="B" horiz-adv-x="1243" 
d="M857 735q86 -12 146 -47q69 -40 110 -111q48 -81 48 -183q0 -167 -116 -277q-125 -117 -430 -117h-561v76q90 2 123 16q36 15 45 59q5 23 5 68v927q0 71 -15 97q-18 34 -84 42q-35 4 -74 4v76h601q106 0 174.5 -15t123.5 -50q68 -43 106 -114.5t38 -155.5
q0 -221 -240 -295zM490 751h108q127 0 176 63q52 67 52 204q0 147 -52 212q-45 58 -157 58h-127v-537zM490 674v-507q0 -49 19 -66q22 -18 73 -18h75q113 0 164 60q69 80 69 239t-64 233q-52 59 -191 59h-145z" />
    <glyph glyph-name="C" unicode="C" horiz-adv-x="1312" 
d="M1123 487h69q-5 -175 -78 -293t-200 -178q-102 -49 -227 -49q-133 0 -246 55.5t-191 159.5q-140 186 -140 479q0 287 113 481q72 124 198 191q122 65 276 65q162 0 277 -78q37 -25 82 -71l68 149h44v-469h-65q-30 133 -79 216q-46 77 -129 122q-73 40 -156 40
q-198 0 -277 -186q-71 -170 -71 -424q0 -251 72 -406q81 -174 288 -174q97 0 178 41.5t131 117.5q54 82 63 211z" />
    <glyph glyph-name="D" unicode="D" horiz-adv-x="1347" 
d="M226 219v927q0 71 -15 97q-18 34 -84 42q-35 4 -74 4v76h580q144 0 245 -34.5t180 -109.5q94 -90 147 -221q60 -148 60 -311q0 -224 -105 -405q-114 -196 -335 -256q-104 -28 -257 -28h-515v76q90 2 123 16q36 15 45 59q5 23 5 68zM496 1288v-1119q0 -60 24 -76
q23 -16 82 -16q206 0 287 114q105 148 105 514q0 308 -99 456q-84 127 -276 127h-123z" />
    <glyph glyph-name="E" unicode="E" horiz-adv-x="1193" 
d="M1110 379l-66 -379h-990v76q90 2 123 16q36 15 45 59q5 23 5 68v927q0 71 -15 97q-18 34 -84 42q-35 4 -74 4v76h976l58 -360h-65q-29 134 -70 192q-37 54 -90 74q-45 17 -117 17h-249v-540h229q56 1 77 18q30 25 39 89q3 23 6 63h76v-418h-76q-3 82 -16 115t-41 46
q-23 10 -64 10h-230v-486q0 -63 22 -85q26 -23 96 -23h107q114 1 172 45q59 43 114 158q20 44 37 99h65z" />
    <glyph glyph-name="F" unicode="F" horiz-adv-x="1138" 
d="M498 671v-459q1 -71 15 -97q18 -33 84 -41q32 -4 74 -5v-76q-161 15 -308 15t-308 -15v76q89 3 123 16q36 16 45 59q5 23 5 68v934q0 71 -15 97q-18 34 -84 42q-35 4 -74 4v76h976l58 -360h-65q-29 134 -70 192q-37 54 -90 74q-45 17 -117 17h-249v-540h229q56 1 77 18
q30 25 39 89q3 23 6 63h76v-418h-76q-3 82 -16 115t-41 46q-23 10 -64 10h-230z" />
    <glyph glyph-name="G" unicode="G" horiz-adv-x="1384" 
d="M1188 1399v-470h-65q-30 125 -74 205q-48 87 -131 135.5t-185 48.5q-369 0 -369 -621q0 -273 61 -445q74 -210 301 -210q92 0 223 52v357q0 50 -9 69q-21 41 -140 46v75q141 -12 269 -12q129 0 271 12v-75q-73 -4 -104 -24q-23 -15 -27 -43q-2 -8 -2 -53v-297
q-235 -172 -509 -172q-292 0 -455 193q-160 189 -160 514q0 331 166 516q169 188 447 188q163 0 286 -73q40 -24 90 -66l72 150h44z" />
    <glyph glyph-name="H" unicode="H" horiz-adv-x="1463" 
d="M490 750h483v403q0 71 -15 97q-18 33 -84 41q-34 4 -74 5v76q174 -15 312 -15q137 0 296 15v-76q-88 -2 -122 -16q-37 -15 -46 -59q-5 -23 -5 -68v-941q0 -71 15 -97q18 -33 84 -41q33 -4 74 -5v-76q-161 15 -296 15t-312 -15v76q89 3 123 16q37 16 45 59q5 22 5 68v461
h-483v-461q0 -71 15 -97q18 -33 84 -41q32 -4 74 -5v-76q-177 15 -313 15q-135 0 -296 -15v76q89 3 123 16q36 16 45 59q5 23 5 68v941q0 71 -15 97q-18 33 -84 41q-35 4 -74 5v76q159 -15 296 -15q138 0 313 15v-76q-88 -2 -123 -16q-37 -15 -45 -59q-5 -20 -5 -68v-403z
" />
    <glyph glyph-name="I" unicode="I" horiz-adv-x="724" 
d="M227 212v941q0 71 -15 97q-18 33 -84 41q-35 4 -74 5v76q175 -15 308 -15t308 15v-76q-88 -2 -123 -16q-37 -15 -45 -59q-5 -22 -5 -68v-941q1 -71 15 -97q18 -33 84 -41q32 -4 74 -5v-76q-177 15 -308 15t-308 -15v76q89 3 123 16q36 16 45 59q5 23 5 68z" />
    <glyph glyph-name="J" unicode="J" horiz-adv-x="724" 
d="M-23 -144v90q42 -7 76 -7q105 0 144 58q36 54 36 194v962q0 72 -15 97q-18 33 -84 41q-34 4 -74 5v76q175 -15 308 -15t308 15v-76q-88 -2 -123 -16q-37 -15 -45 -59q-5 -23 -5 -68v-866q0 -158 -33 -235q-86 -204 -389 -204q-50 0 -104 8z" />
    <glyph glyph-name="K" unicode="K" horiz-adv-x="1425" 
d="M489 684l453 497q36 40 36 65q0 34 -47 42q-26 5 -84 8v76q130 -8 226 -8t226 8v-76q-65 -4 -106 -18q-74 -25 -147 -101l-268 -285l393 -665q64 -106 115 -133q39 -22 118 -25v-76q-174 16 -312 16t-311 -16v76q49 3 73 7q58 8 58 48q0 19 -27 69l-279 517l-117 -125
v-373q0 -71 15 -97q18 -33 84 -41q25 -3 59 -5v-76q-134 15 -281 15q-151 0 -312 -15v76q89 3 123 16q36 16 45 59q5 23 5 68v941q0 71 -15 97q-18 33 -84 41q-35 4 -74 5v76q174 -15 313 -15q136 0 295 15v-76q-88 -2 -122 -16q-37 -15 -46 -59q-5 -22 -5 -68v-469z" />
    <glyph glyph-name="L" unicode="L" horiz-adv-x="1130" 
d="M1110 379l-66 -379h-990v76q90 2 123 16q36 15 45 59q5 23 5 68v934q0 71 -15 97q-18 33 -84 41q-35 4 -74 5v76q175 -15 308 -15t308 15v-76q-88 -2 -123 -16q-37 -15 -45 -59q-5 -22 -5 -68v-967q0 -65 21 -85q25 -23 97 -23h107q114 1 172 45q59 43 114 157
q20 44 37 99h65z" />
    <glyph glyph-name="M" unicode="M" horiz-adv-x="1809" 
d="M324 1207l-20 -994q1 -51 3 -69q12 -57 86 -69q31 -4 84 -6v-76q-118 8 -203 8q-83 0 -223 -8v76q89 3 122 16q37 15 45 59q4 17 6 69l20 938q1 49 -7 76.5t-27 41.5q-33 23 -139 25v78q115 -10 228 -10q120 0 242 10l370 -898l374 898q117 -10 233 -10q109 0 220 10v-76
q-91 -4 -123 -18q-35 -15 -46 -57q-2 -13 -4 -58v-10l17 -940q2 -72 16 -98q18 -33 83 -41q32 -4 74 -5v-76q-176 15 -307 15t-309 -15v76q116 3 146 32q25 26 26 79q1 30 1 33l-17 983l-373 -909q-41 -105 -86 -247h-43q-33 100 -77 215l-23 60z" />
    <glyph glyph-name="N" unicode="N" horiz-adv-x="1416" 
d="M1195 -35h-47q-67 113 -193 286l-49 66l-601 808v-913q0 -71 15 -97q18 -33 84 -41q33 -4 74 -5v-76q-121 8 -213 8q-91 0 -211 -8v76q89 3 123 16q37 16 45 59q5 22 5 68v1005q-42 38 -75 55q-40 20 -100 24v76q111 -7 197 -7t198 7l670 -891v672q-1 72 -15 97
q-24 43 -158 46v76q117 -7 213 -7t211 7v-76q-88 -2 -122 -16q-38 -15 -46 -59q-5 -22 -5 -68v-1188z" />
    <glyph glyph-name="O" unicode="O" horiz-adv-x="1368" 
d="M693 1398q179 0 327 -100q266 -179 266 -615q0 -307 -141 -497q-79 -106 -198 -162.5t-265 -56.5q-145 0 -264.5 57t-195.5 162q-139 193 -139 492q0 319 149 511q82 106 209 160q116 49 252 49zM689 1333q-118 0 -202 -105q-123 -153 -123 -533q0 -255 53 -436
q31 -106 104 -170q65 -57 163 -57q140 0 220 121q101 154 101 536q0 276 -55 437q-70 207 -261 207z" />
    <glyph glyph-name="P" unicode="P" horiz-adv-x="1207" 
d="M497 581v-369q1 -71 15 -97q18 -33 84 -41q32 -4 74 -5v-76q-177 15 -308 15t-308 -15v76q89 3 123 16q36 16 45 59q5 23 5 68v934q0 71 -15 97q-18 34 -84 42q-35 4 -74 4v76h599q118 0 191 -15t133 -52q80 -49 127 -139q45 -85 45 -182q0 -135 -82 -243
q-118 -153 -384 -153h-186zM497 658h89q150 0 218 73q75 80 75 239q0 162 -71 244q-66 74 -216 74h-95v-630z" />
    <glyph glyph-name="Q" unicode="Q" horiz-adv-x="1348" 
d="M1447 63v-86h-137q-112 1 -180 35q-41 22 -107 77q-152 -122 -353 -122q-140 0 -258 57.5t-192 161.5q-137 193 -137 494q0 317 146 508q80 104 206 161q111 49 239 49q185 0 330 -99q149 -102 213 -295q48 -144 48 -320q0 -221 -82 -399q100 -155 133 -182
q49 -38 131 -40zM679 1333q-119 0 -202 -105q-123 -153 -123 -533q0 -255 53 -436q31 -106 104 -170q64 -57 162 -57q141 0 220 121q101 154 101 537q0 275 -55 436q-70 207 -260 207z" />
    <glyph glyph-name="R" unicode="R" horiz-adv-x="1314" 
d="M490 616v-404q0 -71 15 -97q18 -33 84 -41q32 -4 74 -5v-76q-162 15 -297 15t-312 -15v76q89 3 123 16q36 16 45 59q5 23 5 68v934q0 71 -15 97q-18 34 -84 42q-35 4 -74 4v76h602q118 0 190.5 -15.5t132.5 -52.5q78 -50 124 -140q39 -78 39 -165q0 -125 -77 -216
q-73 -88 -250 -130q60 -20 100 -51q41 -30 95 -144l112 -242q49 -106 93 -125q32 -14 78 -15v-76q-102 6 -172 6q-69 0 -171 -6q-29 46 -62 124l-144 332q-49 110 -83 134q-47 33 -121 33h-50zM497 693h106q134 0 196 65q73 78 73 229q0 142 -61 224q-58 77 -193 77h-121
v-595z" />
    <glyph glyph-name="S" unicode="S" horiz-adv-x="1134" 
d="M115 447h71q21 -141 75 -227q50 -79 139 -123q71 -36 146 -36q120 0 197 77q65 66 65 156q0 114 -105 195q-50 38 -192 116q-214 118 -276 182q-98 100 -98 242q0 176 137 272q123 86 297 86q134 0 231 -61q32 -20 72 -56l69 131h44v-422h-71q-20 120 -69 198
q-84 133 -239 133q-108 0 -173 -64q-62 -61 -62 -151q0 -82 68 -138q34 -28 132 -81q182 -100 267 -153q100 -63 145 -130q58 -87 58 -205q0 -178 -124 -296q-119 -115 -309 -115q-158 0 -287 77q-35 21 -82 57l-82 -156h-44v492z" />
    <glyph glyph-name="T" unicode="T" horiz-adv-x="1196" 
d="M733 1288v-1076q0 -71 15 -97q18 -33 84 -41q32 -4 74 -5v-76q-161 15 -308 15t-308 -15v76q89 3 123 16q37 16 45 59q5 22 5 68v1076h-61q-142 0 -216 -100q-48 -67 -77 -200h-71l65 377h991l65 -377h-70q-35 153 -91 217q-71 82 -201 83h-64z" />
    <glyph glyph-name="U" unicode="U" horiz-adv-x="1416" 
d="M1201 1153v-666q0 -150 -31 -230q-55 -145 -185 -216q-115 -64 -277 -64q-254 0 -391 155q-73 84 -91 195q-10 64 -10 140v686q0 71 -15 97q-18 33 -84 41q-35 4 -74 5v76q175 -15 308 -15t308 15v-76q-88 -2 -123 -16q-37 -15 -45 -59q-5 -22 -5 -68v-737
q0 -148 56 -223q73 -97 240 -97q100 0 179 38.5t117 106.5q45 81 45 265v647q-1 71 -15 97q-18 33 -84 41q-35 4 -74 5v76q117 -7 213 -7q95 0 211 7v-76q-88 -2 -123 -16q-37 -15 -45 -59q-5 -20 -5 -68z" />
    <glyph glyph-name="V" unicode="V" horiz-adv-x="1358" 
d="M701 -32h-56q-24 78 -104 281l-336 874q-49 123 -89 146q-35 21 -96 27v76q152 -15 297 -15t297 15v-76q-53 -3 -83 -9q-60 -12 -60 -56q0 -25 27 -98l276 -750l283 752q29 76 29 101q0 38 -46 50q-26 7 -89 10v76q109 -8 192 -8t194 8v-76q-61 -7 -103 -32
q-51 -33 -83 -115l-355 -914q-38 -95 -95 -267z" />
    <glyph glyph-name="W" unicode="W" horiz-adv-x="1886" 
d="M606 -32h-51q-18 94 -51 216l-281 940q-34 109 -68 134q-40 31 -117 38v76q149 -15 290 -15q142 0 290 15v-76q-59 -6 -79 -10q-58 -13 -58 -63q0 -26 18 -88l189 -646l338 929h47l319 -935l198 640q21 67 21 103q0 47 -45 60q-23 7 -84 10v76q110 -8 191 -8q80 0 191 8
v-76q-85 -8 -116 -33q-40 -34 -68 -122l-290 -932q-26 -85 -61 -241h-51q-22 104 -56 203l-274 802l-272 -756q-39 -110 -70 -249z" />
    <glyph glyph-name="X" unicode="X" horiz-adv-x="1357" 
d="M31 -7v76q78 6 132 33q73 35 129 114l283 406l-284 525q-37 68 -61 91q-51 51 -154 58v76q153 -15 306 -15q154 0 307 15v-76q-57 -3 -82 -8q-53 -9 -53 -50q0 -25 23 -68l165 -307l184 262q60 86 60 118q0 35 -44 45q-22 5 -80 8v76q116 -8 211 -8t211 8v-76
q-69 -4 -114 -22q-59 -25 -117 -107l-267 -381l279 -522q58 -106 89 -136q49 -49 133 -57q2 0 38 -2v-76q-167 15 -316 15q-148 0 -316 -15v76q63 4 85 8q46 9 46 50q0 32 -33 92l-176 326l-228 -329q-43 -63 -43 -91q0 -39 46 -48q21 -4 73 -8v-76q-125 8 -216 8t-216 -8z
" />
    <glyph glyph-name="Y" unicode="Y" horiz-adv-x="1281" 
d="M506 588l-268 538q-50 99 -96 135q-41 28 -111 35v76q149 -15 298 -15q148 0 298 15v-76q-49 -2 -75 -7q-60 -11 -60 -54q0 -27 28 -82l225 -450l219 435q34 68 34 102q0 37 -47 48q-24 5 -80 8v76q112 -8 194 -8q83 0 195 8v-76q-70 -7 -107 -26q-44 -23 -84 -102
l-293 -580v-376q1 -71 15 -97q18 -33 84 -41q32 -4 74 -5v-76q-179 15 -309 15t-307 -15v76q89 3 123 16q37 16 45 59q5 22 5 68v376z" />
    <glyph glyph-name="Z" unicode="Z" horiz-adv-x="1177" 
d="M49 0l695 1288h-199q-101 0 -158 -26q-114 -48 -187 -253h-71l61 356h893l-694 -1288h313q108 1 161 29q81 44 145 173q26 53 49 125h71l-69 -404h-1010z" />
    <glyph glyph-name="bracketleft" unicode="[" horiz-adv-x="697" 
d="M639 1304h-223v-1641h223v-61h-419v1763h419v-61z" />
    <glyph glyph-name="backslash" unicode="\" horiz-adv-x="911" 
d="M1094 -398h-172l-902 1763h172z" />
    <glyph glyph-name="bracketright" unicode="]" horiz-adv-x="697" 
d="M57 -337h223v1641h-223v61h419v-1763h-419v61z" />
    <glyph glyph-name="asciicircum" unicode="^" 
d="M1079 579h-98l-380 589l-395 -589h-261l576 855h15z" />
    <glyph glyph-name="underscore" unicode="_" 
d="M35 -183h954v-113h-954v113z" />
    <glyph glyph-name="grave" unicode="`" 
d="M639 1123h-90l-425 286h393z" />
    <glyph glyph-name="a" unicode="a" horiz-adv-x="1020" 
d="M989 61v-59q-85 -22 -152 -22q-103 0 -155 59q-36 41 -47 124q-94 -185 -281 -185q-123 0 -205 67q-91 74 -91 198q0 284 546 358v138q0 91 -25 128q-39 58 -125 58q-54 0 -97 -26q-42 -25 -42 -62q0 -12 3 -27q8 -45 8 -63q0 -107 -107 -107q-96 0 -96 95q0 102 100 175
q107 79 267 79q219 0 316 -133q41 -58 52 -170q5 -49 5 -141v-354q0 -70 9 -100q12 -40 61 -40q22 0 56 10zM604 544q-117 -23 -177 -56q-110 -61 -110 -209q0 -87 35 -137q36 -53 103 -53q49 0 85 28.5t50 79.5q14 46 14 151v196z" />
    <glyph glyph-name="b" unicode="b" horiz-adv-x="1120" 
d="M166 -23v1154q0 61 -4.5 86.5t-16.5 37.5q-24 23 -124 22v54q194 13 400 72v-508q43 42 75 60q61 34 145 34q182 0 293 -137q120 -148 120 -367q0 -218 -126 -366q-121 -142 -310 -142q-196 0 -263 177l-136 -177h-53zM606 932q-72 0 -120 -66q-67 -94 -67 -378
q0 -205 35 -327q37 -127 146 -127q120 0 157 145q33 128 33 320q0 200 -35 309q-40 124 -149 124z" />
    <glyph glyph-name="c" unicode="c" horiz-adv-x="953" 
d="M870 1012v-383h-62q-15 103 -44 166t-80.5 99t-113.5 36q-225 0 -225 -450q0 -426 220 -426q120 0 188 114q33 57 45 144h86q-17 -115 -62 -185q-46 -73 -126.5 -113.5t-178.5 -40.5q-215 0 -339 169q-98 134 -98 336q0 218 116 362q128 157 332 157q140 0 238 -94
l63 109h41z" />
    <glyph glyph-name="d" unicode="d" horiz-adv-x="1122" 
d="M1114 91v-54q-125 -14 -167 -23q-62 -12 -177 -46q-27 78 -35 128q-31 -49 -60 -76q-70 -65 -182 -65q-184 0 -302 140q-125 147 -125 369q0 216 122 364q113 138 290 138q85 0 146 -34q32 -18 75 -61v260q-1 103 -21 124q-24 23 -123 22v54q204 15 402 72v-1179
q2 -90 25 -110q26 -23 132 -23zM508 909q-104 0 -143 -124q-35 -112 -35 -315q0 -196 32 -313q19 -68 61 -106.5t98 -38.5q49 0 88 34t56 93q37 125 37 325q0 203 -36 317q-41 128 -158 128z" />
    <glyph glyph-name="e" unicode="e" horiz-adv-x="983" 
d="M837 305h80q-22 -128 -94 -210q-107 -122 -302 -122q-210 0 -335 145q-120 139 -120 366q0 239 126 378q122 134 314 134q143 0 249 -82q120 -92 150 -300q9 -57 12 -131h-586v-35q0 -161 44 -269q51 -125 205 -125q135 0 206 113q37 59 51 138zM655 558q-3 126 -19 213
q-31 169 -134 169q-114 0 -152 -196q-14 -73 -17 -186h322z" />
    <glyph glyph-name="f" unicode="f" horiz-adv-x="670" 
d="M444 967h233v-79h-233v-712q0 -83 27 -104q25 -17 120 -21v-58q-168 13 -276 13t-276 -13v58q96 4 120 21q27 21 27 104v712h-146v76q91 1 123 17q26 14 36 55q3 14 8 64q11 99 26 139q30 84 111 129q72 40 166 40q116 0 191 -56q63 -47 63 -129q0 -95 -94 -95
q-95 0 -95 69q0 15 7 54q4 21 4 38q0 25 -14 42q-15 20 -40 20q-88 0 -88 -189v-195z" />
    <glyph glyph-name="g" unicode="g" horiz-adv-x="1031" 
d="M702 933h278v-104h-176q55 -76 55 -180q0 -189 -165 -275q-53 -28 -137 -41q-20 -3 -107 -11q-84 -9 -122 -20q-54 -15 -54 -58t48 -52q24 -5 155 -14q201 -13 286 -34q96 -23 151 -92q51 -64 51 -150q0 -146 -135 -236q-138 -91 -349 -91q-187 0 -310 67
q-118 64 -118 191q0 136 147 194q-40 26 -59 46q-41 45 -41 108q0 127 197 186q-198 90 -198 292q0 144 89 232q99 98 290 98q129 0 224 -56zM479 933q-147 0 -147 -278q0 -262 150 -262q144 0 144 278q0 112 -29 182q-32 80 -118 80zM381 -30q-124 0 -178 -34
q-51 -31 -51 -97q0 -76 69 -120q104 -65 259 -65q124 0 209 42q77 39 77 120q0 97 -125 129q-95 25 -260 25z" />
    <glyph glyph-name="h" unicode="h" horiz-adv-x="1205" 
d="M444 1403v-533q97 119 266 119q177 0 259 -123q51 -75 51 -219v-471q0 -83 27 -104q24 -17 120 -21v-58q-138 12 -253 12q-120 0 -250 -12v55q68 2 85 29q13 19 13 87v516q0 96 -24 135q-39 65 -127 65q-92 0 -139 -70q-28 -43 -28 -135v-511q0 -68 13 -87q17 -27 85 -29
v-55q-131 12 -252 12q-114 0 -252 -12v58q96 4 120 21q27 21 27 104v955q0 61 -4.5 86.5t-16.5 37.5q-24 23 -123 22v54q200 14 403 72z" />
    <glyph glyph-name="i" unicode="i" horiz-adv-x="652" 
d="M457 1006v-830q0 -83 27 -104q24 -17 120 -21v-58q-168 13 -277 13q-107 0 -276 -13v58q96 4 120 21q27 21 27 104v559q0 61 -4.5 86.5t-16.5 37.5q-24 22 -123 22v53q206 16 403 72zM318 1414q59 0 101 -46t42 -112q0 -67 -41 -112t-102 -45t-103 46t-42 112
q0 67 41 112q40 45 104 45z" />
    <glyph glyph-name="j" unicode="j" horiz-adv-x="629" 
d="M450 1006v-969q0 -176 -46 -262q-99 -185 -390 -185q-17 0 -39 2v82q11 -1 17 -1q89 0 137 38q43 33 56 102q7 39 7 118v804q-1 103 -22 124q-23 22 -123 22v53q205 16 403 72zM311 1414q60 0 101 -46q42 -46 42 -112q0 -67 -41 -112q-40 -45 -101 -45t-103 46t-42 112
t41 112q40 45 103 45z" />
    <glyph glyph-name="k" unicode="k" horiz-adv-x="1172" 
d="M436 481l255 290q50 58 50 91q0 37 -56 46q-29 5 -70 8v58q112 -12 224 -12q115 0 262 12v-58q-79 -9 -120 -28q-50 -23 -110 -88l-159 -176l264 -428q55 -90 89 -115q36 -25 100 -30v-58q-118 7 -181 7q-66 0 -166 -7l-263 485l-124 -133v-169q0 -83 27 -104
q24 -17 120 -21v-58q-155 13 -272 13t-268 -13v58q96 4 120 21q27 21 27 104v955q0 61 -4.5 86.5t-16.5 37.5q-24 23 -123 22v54q226 23 395 72v-922z" />
    <glyph glyph-name="l" unicode="l" horiz-adv-x="630" 
d="M445 1403v-1227q0 -83 27 -104q24 -17 120 -21v-58q-168 13 -277 13q-107 0 -276 -13v58q96 4 120 21q27 21 27 104v955q0 61 -4.5 86.5t-16.5 37.5q-24 23 -123 22v54q200 14 403 72z" />
    <glyph glyph-name="m" unicode="m" horiz-adv-x="1740" 
d="M387 992q32 -79 39 -166q46 66 89 100q80 63 188 63q184 0 263 -161q41 65 81 98q76 63 201 63q302 0 302 -306v-507q0 -83 28 -104q25 -16 124 -21v-58q-140 12 -257 12q-123 0 -255 -12v55q71 2 89 29q13 20 13 87v525q0 95 -24 132q-34 54 -112 54q-91 0 -129 -69
q-21 -37 -21 -118v-524q0 -68 13 -87q18 -27 89 -29v-55q-134 11 -231 11q-98 0 -232 -11v55q71 2 89 29q13 21 13 87v529q0 97 -25 133q-36 49 -108 49q-89 0 -131 -66q-22 -36 -22 -124v-521q0 -68 13 -87q19 -27 92 -29v-55q-134 12 -256 12q-117 0 -258 -12v58
q98 4 123 21q27 21 27 104v556q-1 60 -2 79q-3 31 -17.5 45.5t-45.5 18.5q-30 3 -88 3v54q212 21 338 60z" />
    <glyph glyph-name="n" unicode="n" horiz-adv-x="1218" 
d="M382 992q34 -76 40 -172q44 68 91 104q87 65 210 65q178 0 260 -123q51 -76 51 -219v-471q0 -83 27 -104q24 -17 120 -21v-58q-138 12 -253 12q-120 0 -250 -12v55q68 2 85 29q12 19 13 87v516q0 96 -24 136q-40 64 -128 64q-92 0 -139 -70q-28 -43 -28 -135v-511
q0 -68 13 -87q17 -27 85 -29v-55q-131 12 -251 12q-114 0 -252 -12v58q95 5 120 21q27 20 27 104v556q-1 60 -2 79q-3 31 -17 45.5t-45 18.5q-29 3 -86 3v54q202 20 333 60z" />
    <glyph glyph-name="o" unicode="o" horiz-adv-x="1027" 
d="M528 996q200 0 326 -164q107 -139 107 -344q0 -204 -117 -351q-132 -164 -330 -164q-200 0 -329 153q-119 142 -119 353t119 355q133 162 343 162zM514 939q-184 0 -184 -458q0 -188 32 -311q37 -140 150 -140q121 0 157 152q28 116 28 286q0 220 -34 338
q-39 133 -149 133z" />
    <glyph glyph-name="p" unicode="p" horiz-adv-x="1129" 
d="M359 990q24 -69 35 -142q39 56 71 83q69 58 172 58q176 0 300 -141q126 -145 126 -366q0 -219 -120 -367q-111 -137 -292 -137q-85 0 -146 34q-33 18 -75 60v-296q-1 -81 27 -103q24 -17 120 -21v-58q-171 13 -276 13t-276 -13v58q95 4 120 21q27 20 27 103v957
q0 60 -4.5 86t-16.5 38q-19 19 -79 22q-18 0 -50 1v54q159 11 337 56zM608 932q-66 0 -112 -62q-68 -92 -68 -392q0 -198 36 -315q19 -60 59.5 -94t94.5 -34q107 0 146 124q35 113 35 301q0 206 -33 327q-39 145 -158 145z" />
    <glyph glyph-name="q" unicode="q" horiz-adv-x="1122" 
d="M699 72q-42 -42 -75 -60q-61 -34 -146 -34q-181 0 -292 137q-120 148 -120 367q0 221 126 366q123 141 303 141q110 0 180 -65q29 -27 60 -76q13 80 35 142q109 -27 170 -38q42 -7 160 -18v-54q-56 -1 -83 -4q-56 -8 -63 -62q-3 -23 -4 -81v-957q0 -83 27 -103
q25 -17 120 -21v-58q-153 13 -265 13q-110 0 -280 -13v58q95 4 120 21q27 21 27 103v296zM518 932q-76 0 -125 -76q-63 -98 -63 -395q0 -189 35 -302q39 -124 146 -124q54 0 95 34t60 94q36 118 36 311q0 215 -35 331q-39 127 -149 127z" />
    <glyph glyph-name="r" unicode="r" horiz-adv-x="882" 
d="M379 993q26 -84 31 -173q104 177 249 177q95 0 151 -62q49 -55 49 -135q0 -51 -28 -79t-78 -28q-42 0 -69 18q-30 20 -30 54q0 11 4 34q5 30 5 48q0 50 -53 50q-86 0 -130 -95q-23 -50 -23 -153v-473q-1 -82 27 -104q24 -17 120 -21v-58q-169 13 -276 13q-108 0 -276 -13
v58q95 5 120 21q27 20 27 104v568q-1 60 -2 79q-3 31 -17 45.5t-45 18.5q-29 3 -86 3v54q187 9 330 49z" />
    <glyph glyph-name="s" unicode="s" horiz-adv-x="924" 
d="M122 -35v370h60q11 -82 37 -140q29 -66 85 -104.5t123 -38.5q75 0 127 47q51 46 51 109q0 64 -64 111q-37 26 -147 87q-173 95 -215 143q-59 67 -59 165q0 127 97 201q99 74 243 74q128 0 230 -81l50 108h39v-340h-60q-11 80 -34 130q-50 108 -179 108q-75 0 -128 -44
q-48 -40 -48 -95q0 -49 46 -87q24 -20 103 -60q131 -66 191 -105q74 -47 104 -83q51 -59 51 -156q0 -131 -95 -219q-95 -87 -252 -87q-118 0 -204 58q-24 15 -57 44l-56 -115h-39z" />
    <glyph glyph-name="t" unicode="t" horiz-adv-x="690" 
d="M667 144v-83q-46 -29 -78 -44q-73 -35 -160 -35q-134 0 -201.5 71.5t-67.5 213.5v26l14 595h-120v76q119 3 198 86q77 83 107 220h79l-5 -303h206v-79h-207l-4 -606q-1 -72 7 -122q7 -41 39 -63q22 -16 54 -16q66 0 139 63z" />
    <glyph glyph-name="u" unicode="u" horiz-adv-x="1206" 
d="M428 1006v-704q0 -112 28 -154q41 -61 120 -61q101 0 146 87q22 43 22 134v427q-1 105 -20 125q-21 21 -124 21v53q206 16 403 72v-811q0 -59 20 -77q20 -17 68 -20q48 -2 65 -3v-57q-205 -21 -348 -70q-20 86 -26 184q-43 -74 -91 -109q-82 -60 -205 -60
q-170 0 -258 118q-58 77 -58 219v415q-1 105 -20 125q-21 21 -125 21v53q205 16 403 72z" />
    <glyph glyph-name="v" unicode="v" horiz-adv-x="1055" 
d="M548 -32h-49q-27 74 -86 210l-266 646q-25 58 -54 75q-25 13 -83 17v58q171 -13 263 -13q93 0 263 13v-58q-45 -3 -62 -5q-46 -4 -46 -36q0 -13 17 -63l166 -485l194 483q20 49 20 65q0 28 -45 36q-19 3 -60 5v58q114 -8 163 -8t162 8v-58q-60 -6 -85 -18
q-40 -22 -65 -81l-250 -610q-3 -8 -21 -47q-49 -109 -76 -192z" />
    <glyph glyph-name="w" unicode="w" horiz-adv-x="1540" 
d="M794 651l-227 -548q-28 -69 -44 -135h-51q-11 36 -41 123l-261 696q-31 82 -63 105q-29 19 -93 24v58q174 -11 255 -11q82 0 255 11v-58q-46 -4 -65 -9q-41 -11 -41 -40q0 -15 23 -79l158 -433l256 645h55l232 -646l158 443q17 47 17 68q0 36 -43 44q-21 5 -63 7v58
q116 -8 159 -8q45 0 158 8v-58q-68 -10 -100 -39q-29 -27 -56 -99l-260 -689q-21 -57 -38 -121h-49q-17 61 -39 122z" />
    <glyph glyph-name="x" unicode="x" horiz-adv-x="1105" 
d="M438 443l-224 374q-31 51 -66 74q-38 22 -99 25v58q155 -12 269 -12t251 12v-58q-31 -3 -51 -7q-41 -8 -41 -34q0 -22 26 -66l98 -166l144 176q30 37 30 58q0 26 -35 33q-20 4 -56 6v58q104 -8 163 -8t163 8v-58q-103 -15 -168 -95l-200 -241l236 -395q47 -77 94 -106
q38 -23 101 -28v-58q-159 12 -274 12q-116 0 -264 -12v58q43 1 64 6q34 8 34 38q0 23 -26 67l-129 216l-175 -216q-39 -49 -39 -72q0 -25 31 -33q13 -3 54 -6v-58q-99 8 -158 8t-159 -8v58q65 9 106 39q44 33 107 112z" />
    <glyph glyph-name="y" unicode="y" horiz-adv-x="1095" 
d="M508 26l-304 753q-32 77 -67 106q-31 24 -100 31v58q144 -11 260 -11q117 0 260 11v-58q-40 -3 -62 -6q-46 -8 -46 -38q0 -11 17 -62l174 -482l192 466q25 59 25 77q0 33 -45 40q-25 4 -65 5v58q97 -8 161 -8q65 0 165 8v-58q-61 -6 -94 -35q-34 -30 -70 -115l-400 -931
q-71 -166 -180 -216q-59 -28 -156 -28q-20 0 -52 3v116q27 -5 52 -5q85 0 138 27q74 39 119 133z" />
    <glyph glyph-name="z" unicode="z" horiz-adv-x="948" 
d="M54 0l500 901h-130q-88 -1 -130 -25q-68 -38 -137 -214h-62l52 305h736l-503 -901h150q92 1 138 29q49 30 106 151q19 42 35 91h63l-60 -337h-758z" />
    <glyph glyph-name="braceleft" unicode="{" horiz-adv-x="697" 
d="M617 -432h-65q-154 -4 -225 61q-45 44 -55 112q-7 40 -7 88v486q0 91 -40 133q-26 27 -91 59q67 34 92 60q39 41 39 132v439q0 93 21 139q56 130 266 122h65q-162 -38 -156 -218v-438q-1 -118 -43 -168q-26 -32 -99 -68q82 -41 107 -79q35 -52 35 -157v-486
q-6 -179 156 -217z" />
    <glyph glyph-name="bar" unicode="|" 
d="M439 1365h147v-1706h-147v1706z" />
    <glyph glyph-name="braceright" unicode="}" horiz-adv-x="697" 
d="M81 1399h65q153 4 225 -61q61 -61 62 -200v-439q1 -89 37 -130q27 -29 94 -62q-68 -34 -94 -62q-37 -41 -37 -130v-486q0 -91 -21 -139q-55 -129 -266 -122h-65q162 38 156 217v486q1 118 43 168q26 31 99 68q-82 41 -107 79q-35 52 -35 157v438q6 180 -156 218z" />
    <glyph glyph-name="asciitilde" unicode="~" horiz-adv-x="1365" 
d="M1067 1502l35 -23q-41 -78 -109 -138q-80 -70 -167 -70q-38 0 -94 17q-12 4 -82 28q-121 40 -177 40q-69 0 -116 -47q-13 -12 -58 -62l-35 22q121 211 278 211q54 0 177 -43q110 -39 163 -39q101 0 185 104z" />
    <glyph glyph-name="Adieresis" unicode="&#xc4;" horiz-adv-x="1391" 
d="M830 370h-448l-55 -145q-23 -63 -23 -91q0 -46 52 -56q25 -6 92 -9v-76q-136 10 -214 10q-77 0 -214 -10v76q52 3 78 9q67 15 110 88q28 47 52 109l454 1145l450 -1206q36 -95 84 -121q41 -20 122 -24v-76q-160 15 -309 15t-310 -15v76q77 4 101 8q46 10 46 48
q0 13 -15 77zM415 454h389l-179 537zM528 1760q58 0 101 -43q43 -42 43 -103q0 -60 -43 -103t-103 -43t-103 43t-43 103q0 61 43 103q44 43 105 43zM907 1760q59 0 101 -43q43 -42 43 -103q0 -60 -43 -103q-42 -43 -103 -43q-60 0 -103 43t-43 103q0 61 43 103q44 43 105 43
z" />
    <glyph glyph-name="Aring" unicode="&#xc5;" horiz-adv-x="1391" 
d="M830 370h-448l-55 -145q-23 -63 -23 -91q0 -46 52 -56q25 -6 92 -9v-76q-136 10 -214 10q-77 0 -214 -10v76q52 3 78 9q67 15 110 88q28 47 52 109l454 1145l450 -1206q36 -95 84 -121q41 -20 122 -24v-76q-160 15 -309 15t-310 -15v76q77 4 101 8q46 10 46 48
q0 13 -15 77zM415 454h389l-179 537zM717 1812q73 0 127 -54q53 -53 53 -129t-53 -129q-54 -54 -130 -54t-129 54q-54 53 -54 129q0 77 54 129q55 54 132 54zM713 1723q-39 0 -66 -28q-28 -27 -28 -66q0 -40 28 -67q28 -28 67 -28t67 28q28 27 28 66q0 40 -28 67
q-28 28 -68 28z" />
    <glyph glyph-name="Ccedilla" unicode="&#xc7;" horiz-adv-x="1312" 
d="M725 -32l-45 -76q181 -2 181 -143q0 -75 -56 -121q-53 -43 -135 -43q-69 0 -176 36v73q73 -21 118 -21q39 0 62 23q22 22 22 57q0 83 -129 83h-17l79 134q-179 19 -307 134q-212 190 -212 558q0 286 113 480q72 124 197 191q123 65 277 65q162 0 277 -78q37 -25 81 -71
l69 149h44v-469h-65q-30 133 -79 216q-46 77 -129 122q-73 40 -156 40q-198 0 -277 -186q-71 -170 -71 -424q0 -251 72 -406q81 -174 288 -174q96 0 177.5 42t131.5 117q54 82 63 211h69q-3 -266 -186 -414q-118 -93 -281 -105z" />
    <glyph glyph-name="Eacute" unicode="&#xc9;" horiz-adv-x="1193" 
d="M1110 379l-66 -379h-990v76q90 2 123 16q36 15 45 59q5 23 5 68v927q0 71 -15 97q-18 34 -84 42q-35 4 -74 4v76h976l58 -360h-65q-29 134 -70 192q-37 54 -90 74q-45 17 -117 17h-249v-540h229q56 1 77 18q30 25 39 89q3 23 6 63h76v-418h-76q-3 82 -16 115t-41 46
q-23 10 -64 10h-230v-486q0 -63 22 -85q26 -23 96 -23h107q114 1 172 45q59 43 114 158q20 44 37 99h65zM447 1480l179 268h426l-503 -268h-102z" />
    <glyph glyph-name="Ntilde" unicode="&#xd1;" horiz-adv-x="1416" 
d="M1195 -35h-47q-67 113 -193 286l-49 66l-601 808v-913q0 -71 15 -97q18 -33 84 -41q33 -4 74 -5v-76q-121 8 -213 8q-91 0 -211 -8v76q89 3 123 16q37 16 45 59q5 22 5 68v1005q-42 38 -75 55q-40 20 -100 24v76q111 -7 197 -7t198 7l670 -891v672q-1 72 -15 97
q-24 43 -158 46v76q117 -7 213 -7t211 7v-76q-88 -2 -122 -16q-38 -15 -46 -59q-5 -22 -5 -68v-1188zM432 1497l-65 19q42 106 72 145q60 76 147 76q64 0 155 -46q98 -50 139 -50q53 0 89 39q17 18 46 61l66 -15q-39 -119 -92 -177q-54 -60 -140 -60q-44 0 -92 20
q-24 10 -97 47q-62 31 -103 31q-72 0 -125 -90z" />
    <glyph glyph-name="Odieresis" unicode="&#xd6;" horiz-adv-x="1368" 
d="M693 1398q179 0 327 -100q266 -179 266 -615q0 -307 -141 -497q-79 -106 -198 -162.5t-265 -56.5q-145 0 -264.5 57t-195.5 162q-139 193 -139 492q0 319 149 511q82 106 209 160q116 49 252 49zM689 1333q-118 0 -202 -105q-123 -153 -123 -533q0 -255 53 -436
q31 -106 104 -170q65 -57 163 -57q140 0 220 121q101 154 101 536q0 276 -55 437q-70 207 -261 207zM496 1760q58 0 101 -43q43 -42 43 -103q0 -60 -43 -103t-103 -43t-103 43t-43 103q0 61 43 103q44 43 105 43zM875 1760q59 0 101 -43q43 -42 43 -103q0 -60 -43 -103
q-42 -43 -103 -43q-60 0 -103 43t-43 103q0 61 43 103q44 43 105 43z" />
    <glyph glyph-name="Udieresis" unicode="&#xdc;" horiz-adv-x="1416" 
d="M1201 1153v-666q0 -150 -31 -230q-55 -145 -185 -216q-115 -64 -277 -64q-254 0 -391 155q-73 84 -91 195q-10 64 -10 140v686q0 71 -15 97q-18 33 -84 41q-35 4 -74 5v76q175 -15 308 -15t308 15v-76q-88 -2 -123 -16q-37 -15 -45 -59q-5 -22 -5 -68v-737
q0 -148 56 -223q73 -97 240 -97q100 0 179 38.5t117 106.5q45 81 45 265v647q-1 71 -15 97q-18 33 -84 41q-35 4 -74 5v76q117 -7 213 -7q95 0 211 7v-76q-88 -2 -123 -16q-37 -15 -45 -59q-5 -20 -5 -68zM581 1760q58 0 101 -43q43 -42 43 -103q0 -60 -43 -103t-103 -43
t-103 43t-43 103q0 61 43 103q44 43 105 43zM960 1760q59 0 101 -43q43 -42 43 -103q0 -60 -43 -103q-42 -43 -103 -43q-60 0 -103 43t-43 103q0 61 43 103q43 43 105 43z" />
    <glyph glyph-name="aacute" unicode="&#xe1;" horiz-adv-x="1020" 
d="M989 61v-59q-85 -22 -152 -22q-103 0 -155 59q-36 41 -47 124q-94 -185 -281 -185q-123 0 -205 67q-91 74 -91 198q0 284 546 358v138q0 91 -25 128q-39 58 -125 58q-54 0 -97 -26q-42 -25 -42 -62q0 -12 3 -27q8 -45 8 -63q0 -107 -107 -107q-96 0 -96 95q0 102 100 175
q107 79 267 79q219 0 316 -133q41 -58 52 -170q5 -49 5 -141v-354q0 -70 9 -100q12 -40 61 -40q22 0 56 10zM604 544q-117 -23 -177 -56q-110 -61 -110 -209q0 -87 35 -137q36 -53 103 -53q49 0 85 28.5t50 79.5q14 46 14 151v196zM379 1123l122 286h393l-425 -286h-90z" />
    <glyph glyph-name="agrave" unicode="&#xe0;" horiz-adv-x="1020" 
d="M989 61v-59q-85 -22 -152 -22q-103 0 -155 59q-36 41 -47 124q-94 -185 -281 -185q-123 0 -205 67q-91 74 -91 198q0 284 546 358v138q0 91 -25 128q-39 58 -125 58q-54 0 -97 -26q-42 -25 -42 -62q0 -12 3 -27q8 -45 8 -63q0 -107 -107 -107q-96 0 -96 95q0 102 100 175
q107 79 267 79q219 0 316 -133q41 -58 52 -170q5 -49 5 -141v-354q0 -70 9 -100q12 -40 61 -40q22 0 56 10zM604 544q-117 -23 -177 -56q-110 -61 -110 -209q0 -87 35 -137q36 -53 103 -53q49 0 85 28.5t50 79.5q14 46 14 151v196zM651 1123h-90l-425 286h393z" />
    <glyph glyph-name="acircumflex" unicode="&#xe2;" horiz-adv-x="1020" 
d="M989 61v-59q-85 -22 -152 -22q-103 0 -155 59q-36 41 -47 124q-94 -185 -281 -185q-123 0 -205 67q-91 74 -91 198q0 284 546 358v138q0 91 -25 128q-39 58 -125 58q-54 0 -97 -26q-42 -25 -42 -62q0 -12 3 -27q8 -45 8 -63q0 -107 -107 -107q-96 0 -96 95q0 102 100 175
q107 79 267 79q219 0 316 -133q41 -58 52 -170q5 -49 5 -141v-354q0 -70 9 -100q12 -40 61 -40q22 0 56 10zM604 544q-117 -23 -177 -56q-110 -61 -110 -209q0 -87 35 -137q36 -53 103 -53q49 0 85 28.5t50 79.5q14 46 14 151v196zM158 1099l345 343l345 -343h-96l-249 148
l-249 -148h-96z" />
    <glyph glyph-name="adieresis" unicode="&#xe4;" horiz-adv-x="1020" 
d="M989 61v-59q-85 -22 -152 -22q-103 0 -155 59q-36 41 -47 124q-94 -185 -281 -185q-123 0 -205 67q-91 74 -91 198q0 284 546 358v138q0 91 -25 128q-39 58 -125 58q-54 0 -97 -26q-42 -25 -42 -62q0 -12 3 -27q8 -45 8 -63q0 -107 -107 -107q-96 0 -96 95q0 102 100 175
q107 79 267 79q219 0 316 -133q41 -58 52 -170q5 -49 5 -141v-354q0 -70 9 -100q12 -40 61 -40q22 0 56 10zM604 544q-117 -23 -177 -56q-110 -61 -110 -209q0 -87 35 -137q36 -53 103 -53q49 0 85 28.5t50 79.5q14 46 14 151v196zM294 1416q54 0 94 -43q40 -42 40 -103
q0 -60 -40 -103t-96 -43t-96 43t-40 103q0 62 40 103q41 43 98 43zM715 1416q55 0 95 -43q40 -42 40 -103q0 -60 -40 -103t-97 -43q-56 0 -96 43t-40 103t40 103t98 43z" />
    <glyph glyph-name="atilde" unicode="&#xe3;" horiz-adv-x="1020" 
d="M989 61v-59q-85 -22 -152 -22q-103 0 -155 59q-36 41 -47 124q-94 -185 -281 -185q-123 0 -205 67q-91 74 -91 198q0 284 546 358v138q0 91 -25 128q-39 58 -125 58q-54 0 -97 -26q-42 -25 -42 -62q0 -12 3 -27q8 -45 8 -63q0 -107 -107 -107q-96 0 -96 95q0 102 100 175
q107 79 267 79q219 0 316 -133q41 -58 52 -170q5 -49 5 -141v-354q0 -70 9 -100q12 -40 61 -40q22 0 56 10zM604 544q-117 -23 -177 -56q-110 -61 -110 -209q0 -87 35 -137q36 -53 103 -53q49 0 85 28.5t50 79.5q14 46 14 151v196zM226 1144l-64 18q43 108 72 146
q59 76 146 76q64 0 154 -47q97 -50 138 -50q53 0 88 39q16 17 45 62l66 -16q-38 -118 -91 -177q-53 -60 -139 -60q-45 0 -92 20q-22 10 -96 47q-62 32 -102 32q-72 0 -125 -90z" />
    <glyph glyph-name="aring" unicode="&#xe5;" horiz-adv-x="1020" 
d="M989 61v-59q-85 -22 -152 -22q-103 0 -155 59q-36 41 -47 124q-94 -185 -281 -185q-123 0 -205 67q-91 74 -91 198q0 284 546 358v138q0 91 -25 128q-39 58 -125 58q-54 0 -97 -26q-42 -25 -42 -62q0 -12 3 -27q8 -45 8 -63q0 -107 -107 -107q-96 0 -96 95q0 102 100 175
q107 79 267 79q219 0 316 -133q41 -58 52 -170q5 -49 5 -141v-354q0 -70 9 -100q12 -40 61 -40q22 0 56 10zM604 544q-117 -23 -177 -56q-110 -61 -110 -209q0 -87 35 -137q36 -53 103 -53q49 0 85 28.5t50 79.5q14 46 14 151v196zM506 1465q73 0 127 -54q53 -53 53 -129
t-53 -129q-54 -54 -130 -54t-129 54q-54 53 -54 129q0 77 54 129q55 54 132 54zM502 1377q-39 0 -66 -28q-28 -28 -28 -67t28 -67q27 -28 67 -28q39 0 67 28t28 67q0 40 -28 67q-28 28 -68 28z" />
    <glyph glyph-name="ccedilla" unicode="&#xe7;" horiz-adv-x="953" 
d="M548 -26l-47 -80q176 -3 176 -139q0 -73 -55 -118q-50 -41 -131 -41q-70 0 -171 36v70q73 -21 114 -21q39 0 61 23q21 21 21 55q0 62 -73 76q-20 4 -69 5l81 137q-133 21 -223 104q-152 141 -152 397q0 218 116 362q128 157 332 157q140 0 238 -94l63 109h41v-383h-62
q-15 103 -44 166t-80.5 99t-113.5 36q-225 0 -225 -450q0 -426 220 -426q120 0 188 114q33 57 45 144h86q-23 -171 -127 -259q-84 -69 -209 -79z" />
    <glyph glyph-name="eacute" unicode="&#xe9;" horiz-adv-x="983" 
d="M837 305h80q-22 -128 -94 -210q-107 -122 -302 -122q-210 0 -335 145q-120 139 -120 366q0 239 126 378q122 134 314 134q143 0 249 -82q120 -92 150 -300q9 -57 12 -131h-586v-35q0 -161 44 -269q51 -125 205 -125q135 0 206 113q37 59 51 138zM655 558q-3 126 -19 213
q-31 169 -134 169q-114 0 -152 -196q-14 -73 -17 -186h322zM387 1123l122 286h393l-425 -286h-90z" />
    <glyph glyph-name="egrave" unicode="&#xe8;" horiz-adv-x="983" 
d="M837 305h80q-22 -128 -94 -210q-107 -122 -302 -122q-210 0 -335 145q-120 139 -120 366q0 239 126 378q122 134 314 134q143 0 249 -82q120 -92 150 -300q9 -57 12 -131h-586v-35q0 -161 44 -269q51 -125 205 -125q135 0 206 113q37 59 51 138zM655 558q-3 126 -19 213
q-31 169 -134 169q-114 0 -152 -196q-14 -73 -17 -186h322zM646 1123h-90l-425 286h393z" />
    <glyph glyph-name="ecircumflex" unicode="&#xea;" horiz-adv-x="983" 
d="M837 305h80q-22 -128 -94 -210q-107 -122 -302 -122q-210 0 -335 145q-120 139 -120 366q0 239 126 378q122 134 314 134q143 0 249 -82q120 -92 150 -300q9 -57 12 -131h-586v-35q0 -161 44 -269q51 -125 205 -125q135 0 206 113q37 59 51 138zM655 558q-3 126 -19 213
q-31 169 -134 169q-114 0 -152 -196q-14 -73 -17 -186h322zM160 1099l345 343l345 -343h-96l-249 148l-249 -148h-96z" />
    <glyph glyph-name="edieresis" unicode="&#xeb;" horiz-adv-x="983" 
d="M837 305h80q-22 -128 -94 -210q-107 -122 -302 -122q-210 0 -335 145q-120 139 -120 366q0 239 126 378q122 134 314 134q143 0 249 -82q120 -92 150 -300q9 -57 12 -131h-586v-35q0 -161 44 -269q51 -125 205 -125q135 0 206 113q37 59 51 138zM655 558q-3 126 -19 213
q-31 169 -134 169q-114 0 -152 -196q-14 -73 -17 -186h322zM296 1416q54 0 94 -43q40 -42 40 -103q0 -60 -40 -103t-96 -43t-96 43t-40 103q0 62 40 103q41 43 98 43zM717 1416q55 0 95 -43q40 -42 40 -103q0 -60 -40 -103t-97 -43q-56 0 -96 43t-40 103t40 103t98 43z" />
    <glyph glyph-name="iacute" unicode="&#xed;" horiz-adv-x="652" 
d="M457 1006v-830q0 -83 27 -104q24 -17 120 -21v-58q-168 13 -277 13q-107 0 -276 -13v58q96 4 120 21q27 21 27 104v559q0 61 -4.5 86.5t-16.5 37.5q-24 22 -123 22v53q206 16 403 72zM181 1123l109 286h365l-384 -286h-90z" />
    <glyph glyph-name="igrave" unicode="&#xec;" horiz-adv-x="652" 
d="M458 1006v-830q0 -83 27 -104q24 -17 120 -21v-58q-168 13 -277 13q-107 0 -276 -13v58q96 4 120 21q27 21 27 104v559q0 61 -4.5 86.5t-16.5 37.5q-24 22 -123 22v53q206 16 403 72zM454 1123h-90l-398 286h380z" />
    <glyph glyph-name="icircumflex" unicode="&#xee;" horiz-adv-x="652" 
d="M8 1099l304 343l304 -343h-89l-215 148l-214 -148h-90zM457 1006v-830q0 -83 27 -104q24 -17 120 -21v-58q-168 13 -277 13q-107 0 -276 -13v58q96 4 120 21q27 21 27 104v559q0 61 -4.5 86.5t-16.5 37.5q-24 22 -123 22v53q206 16 403 72z" />
    <glyph glyph-name="idieresis" unicode="&#xef;" horiz-adv-x="653" 
d="M458 1006v-830q0 -83 27 -104q24 -17 120 -21v-58q-168 13 -277 13q-107 0 -276 -13v58q96 4 120 21q27 21 27 104v559q0 61 -4.5 86.5t-16.5 37.5q-24 22 -123 22v53q206 16 403 72zM146 1411q53 0 91 -41q39 -42 39 -100t-39 -99q-38 -42 -93 -42q-54 0 -93 42
q-39 41 -39 99q0 59 39 100t95 41zM484 1411q53 0 91 -41q39 -41 39 -100t-39 -99q-39 -42 -93 -42t-93 42q-39 41 -39 99q0 59 39 100t95 41z" />
    <glyph glyph-name="ntilde" unicode="&#xf1;" horiz-adv-x="1218" 
d="M382 992q34 -76 40 -172q44 68 91 104q87 65 210 65q178 0 260 -123q51 -76 51 -219v-471q0 -83 27 -104q24 -17 120 -21v-58q-138 12 -253 12q-120 0 -250 -12v55q68 2 85 29q12 19 13 87v516q0 96 -24 136q-40 64 -128 64q-92 0 -139 -70q-28 -43 -28 -135v-511
q0 -68 13 -87q17 -27 85 -29v-55q-131 12 -251 12q-114 0 -252 -12v58q95 5 120 21q27 20 27 104v556q-1 60 -2 79q-3 31 -17 45.5t-45 18.5q-29 3 -86 3v54q202 20 333 60zM319 1144l-64 18q43 108 72 146q59 76 146 76q64 0 154 -47q97 -50 138 -50q53 0 88 39
q16 17 45 62l66 -16q-38 -118 -91 -177q-53 -60 -139 -60q-45 0 -92 20q-22 10 -96 47q-62 32 -102 32q-72 0 -125 -90z" />
    <glyph glyph-name="oacute" unicode="&#xf3;" horiz-adv-x="1027" 
d="M528 996q200 0 326 -164q107 -139 107 -344q0 -204 -117 -351q-132 -164 -330 -164q-200 0 -329 153q-119 142 -119 353t119 355q133 162 343 162zM514 939q-184 0 -184 -458q0 -188 32 -311q37 -140 150 -140q121 0 157 152q28 116 28 286q0 220 -34 338
q-39 133 -149 133zM396 1123l122 286h393l-425 -286h-90z" />
    <glyph glyph-name="ograve" unicode="&#xf2;" horiz-adv-x="1027" 
d="M528 996q200 0 326 -164q107 -139 107 -344q0 -204 -117 -351q-132 -164 -330 -164q-200 0 -329 153q-119 142 -119 353t119 355q133 162 343 162zM514 939q-184 0 -184 -458q0 -188 32 -311q37 -140 150 -140q121 0 157 152q28 116 28 286q0 220 -34 338
q-39 133 -149 133zM654 1123h-90l-425 286h393z" />
    <glyph glyph-name="ocircumflex" unicode="&#xf4;" horiz-adv-x="1027" 
d="M528 996q200 0 326 -164q107 -139 107 -344q0 -204 -117 -351q-132 -164 -330 -164q-200 0 -329 153q-119 142 -119 353t119 355q133 162 343 162zM514 939q-184 0 -184 -458q0 -188 32 -311q37 -140 150 -140q121 0 157 152q28 116 28 286q0 220 -34 338
q-39 133 -149 133zM169 1099l345 343l345 -343h-96l-249 148l-249 -148h-96z" />
    <glyph glyph-name="odieresis" unicode="&#xf6;" horiz-adv-x="1027" 
d="M528 996q200 0 326 -164q107 -139 107 -344q0 -204 -117 -351q-132 -164 -330 -164q-200 0 -329 153q-119 142 -119 353t119 355q133 162 343 162zM514 939q-184 0 -184 -458q0 -188 32 -311q37 -140 150 -140q121 0 157 152q28 116 28 286q0 220 -34 338
q-39 133 -149 133zM305 1416q54 0 94 -43q40 -42 40 -103q0 -60 -40 -103t-96 -43t-96 43t-40 103q0 62 40 103q41 43 98 43zM726 1416q55 0 95 -43q40 -42 40 -103q0 -60 -40 -103t-97 -43q-56 0 -96 43t-40 103t40 103t98 43z" />
    <glyph glyph-name="otilde" unicode="&#xf5;" horiz-adv-x="1027" 
d="M528 996q200 0 326 -164q107 -139 107 -344q0 -204 -117 -351q-132 -164 -330 -164q-200 0 -329 153q-119 142 -119 353t119 355q133 162 343 162zM514 939q-184 0 -184 -458q0 -188 32 -311q37 -140 150 -140q121 0 157 152q28 116 28 286q0 220 -34 338
q-39 133 -149 133zM230 1144l-64 18q43 108 72 146q59 76 146 76q64 0 154 -47q97 -50 138 -50q53 0 88 39q16 17 45 62l66 -16q-38 -118 -91 -177q-53 -60 -139 -60q-45 0 -92 20q-22 10 -96 47q-62 32 -102 32q-72 0 -125 -90z" />
    <glyph glyph-name="uacute" unicode="&#xfa;" horiz-adv-x="1206" 
d="M428 1006v-704q0 -112 28 -154q41 -61 120 -61q101 0 146 87q22 43 22 134v427q-1 105 -20 125q-21 21 -124 21v53q206 16 403 72v-811q0 -59 20 -77q20 -17 68 -20q48 -2 65 -3v-57q-205 -21 -348 -70q-20 86 -26 184q-43 -74 -91 -109q-82 -60 -205 -60
q-170 0 -258 118q-58 77 -58 219v415q-1 105 -20 125q-21 21 -125 21v53q205 16 403 72zM473 1123l122 286h393l-425 -286h-90z" />
    <glyph glyph-name="ugrave" unicode="&#xf9;" horiz-adv-x="1206" 
d="M428 1006v-704q0 -112 28 -154q41 -61 120 -61q101 0 146 87q22 43 22 134v427q-1 105 -20 125q-21 21 -124 21v53q206 16 403 72v-811q0 -59 20 -77q20 -17 68 -20q48 -2 65 -3v-57q-205 -21 -348 -70q-20 86 -26 184q-43 -74 -91 -109q-82 -60 -205 -60
q-170 0 -258 118q-58 77 -58 219v415q-1 105 -20 125q-21 21 -125 21v53q205 16 403 72zM731 1123h-90l-425 286h393z" />
    <glyph glyph-name="ucircumflex" unicode="&#xfb;" horiz-adv-x="1206" 
d="M428 1006v-704q0 -112 28 -154q41 -61 120 -61q101 0 146 87q22 43 22 134v427q-1 105 -20 125q-21 21 -124 21v53q206 16 403 72v-811q0 -59 20 -77q20 -17 68 -20q48 -2 65 -3v-57q-205 -21 -348 -70q-20 86 -26 184q-43 -74 -91 -109q-82 -60 -205 -60
q-170 0 -258 118q-58 77 -58 219v415q-1 105 -20 125q-21 21 -125 21v53q205 16 403 72zM241 1099l345 343l345 -343h-96l-249 148l-249 -148h-96z" />
    <glyph glyph-name="udieresis" unicode="&#xfc;" horiz-adv-x="1206" 
d="M428 1006v-704q0 -112 28 -154q41 -61 120 -61q101 0 146 87q22 43 22 134v427q-1 105 -20 125q-21 21 -124 21v53q206 16 403 72v-811q0 -59 20 -77q20 -17 68 -20q48 -2 65 -3v-57q-205 -21 -348 -70q-20 86 -26 184q-43 -74 -91 -109q-82 -60 -205 -60
q-170 0 -258 118q-58 77 -58 219v415q-1 105 -20 125q-21 21 -125 21v53q205 16 403 72zM378 1416q54 0 94 -43q40 -42 40 -103q0 -60 -40 -103t-96 -43t-96 43t-40 103q0 62 40 103q41 43 98 43zM799 1416q55 0 95 -43q40 -42 40 -103q0 -60 -40 -103t-97 -43q-56 0 -96 43
t-40 103t40 103t98 43z" />
    <glyph glyph-name="dagger" unicode="&#x2020;" horiz-adv-x="1108" 
d="M440 -254l14 1048l-309 -22v201l309 -22l-14 380h228l-14 -380l309 22v-201l-309 22l14 -1048h-228z" />
    <glyph glyph-name="degree" unicode="&#xb0;" 
d="M515 1398q120 0 208 -85q87 -84 87 -206q0 -120 -86 -205q-88 -87 -212 -87t-211 86t-87 206q0 122 87 205q89 86 214 86zM510 1285q-73 0 -127 -53q-53 -51 -53 -125q0 -75 53 -126q54 -53 129 -53t129 53q53 52 53 125q0 76 -53 127q-55 52 -131 52z" />
    <glyph glyph-name="cent" unicode="&#xa2;" horiz-adv-x="1107" 
d="M663 1119v-858q69 9 124 72q56 67 70 179h84q-34 -279 -278 -328v-176h-68v169q-171 -1 -290 106q-160 144 -160 395q0 168 77 295q129 212 373 215v169h68v-175q92 -17 161 -86l64 107h39v-378h-60q-34 270 -204 294zM595 1119q-85 -17 -128 -87q-58 -94 -58 -343
q0 -278 75 -367q41 -50 111 -61v858z" />
    <glyph glyph-name="sterling" unicode="&#xa3;" horiz-adv-x="1107" 
d="M457 742h284v-83h-295l-18 -126q-39 -264 -185 -420q172 61 265 61q48 0 149 -18q89 -15 130 -15q88 0 143 73q31 42 58 150h69q-11 -170 -69 -249q-43 -62 -106 -88.5t-168 -26.5h-660q61 84 87 197q14 38 44 280l21 182h-152v83h161l17 130q31 230 150 365
q135 151 348 151q287 0 311 -333h-92q-8 78 -26 128q-40 114 -162 114q-142 0 -217 -139q-43 -79 -68 -274z" />
    <glyph glyph-name="section" unicode="&#xa7;" horiz-adv-x="1107" 
d="M139 77h85q9 -91 42 -152q78 -146 252 -146q92 0 150 46q69 54 69 147q0 63 -36 105q-25 31 -86 65l-294 166q-97 55 -138 119q-49 76 -49 169q0 114 72 183q34 33 105 66q-58 41 -86 77q-51 67 -51 155q0 142 113 229q106 82 262 82q109 0 197.5 -42.5t135.5 -117.5
q51 -83 53 -216h-79q-7 91 -38 152q-63 123 -207 123q-88 0 -144 -50q-57 -51 -57 -127q0 -65 48 -109q26 -24 82 -54l239 -130q101 -54 142 -111q52 -71 52 -163q0 -104 -63 -181q-37 -46 -113 -90q165 -99 165 -249q0 -147 -117 -242q-111 -91 -286 -91q-257 0 -367 183
q-51 84 -53 204zM379 804q-117 -46 -117 -139q0 -55 34 -92q31 -34 100 -74l339 -194q116 65 116 148q0 55 -37 91q-32 31 -87 62z" />
    <glyph glyph-name="bullet" unicode="&#x2022;" horiz-adv-x="1365" 
d="M689 978q113 0 196 -83q84 -83 84 -201t-83 -201t-201 -83q-116 0 -199 82q-85 84 -85 202q0 121 84 202q86 82 204 82z" />
    <glyph glyph-name="paragraph" unicode="&#xb6;" horiz-adv-x="1107" 
d="M1054 -219v-76q-235 16 -432 16q-198 0 -433 -16v76q89 2 123 16q37 15 45 59q5 22 5 68v688q-113 17 -191 70q-149 100 -149 319q0 223 166 312q99 52 318 52h548v-76q-88 -1 -122 -16q-37 -15 -46 -58q-5 -22 -5 -69v-1222q1 -71 15 -97q18 -33 84 -41q33 -4 74 -5z
M707 -55v1195q0 85 -10 108q-15 35 -72 35q-59 0 -77 -35q-12 -24 -12 -104v-1200q0 -81 12 -106q17 -36 74 -36q58 0 74 35q11 24 11 108z" />
    <glyph glyph-name="germandbls" unicode="&#xdf;" horiz-adv-x="1109" 
d="M512 698v82q120 12 165 75q44 61 44 204q0 115 -27 176q-32 74 -119 74t-114 -67q-17 -41 -17 -115v-1131q-101 5 -177 5q-100 0 -229 -8v58q96 4 120 21q27 21 27 104v785q0 179 67 268q47 64 127 103q91 44 193 44q160 0 266 -91q112 -95 112 -246q0 -189 -217 -287
q120 -35 184 -94q59 -54 92.5 -136t33.5 -172q0 -156 -89 -259q-97 -113 -249 -113q-80 0 -160 44v68q50 -21 86 -21q96 0 131 79q31 70 31 197q0 205 -93 288q-58 51 -188 65z" />
    <glyph glyph-name="registered" unicode="&#xae;" horiz-adv-x="1593" 
d="M805 1388q190 0 360 -104t260 -281q77 -151 77 -320q0 -141 -53.5 -270.5t-153.5 -228.5q-99 -100 -228.5 -153.5t-270.5 -53.5q-140 0 -269.5 53.5t-228.5 153.5q-99 99 -153 228.5t-54 268.5q0 200 104 371q101 167 281 259q150 77 329 77zM789 1311
q-120 0 -234.5 -48.5t-202.5 -135.5t-136 -203.5t-48 -241.5q0 -260 184 -444t444 -184q261 0 445 184t184 443q0 126 -48.5 243.5t-135.5 202.5q-189 184 -452 184zM704 639v-235q0 -42 8 -55q15 -23 99 -26v-54q-101 9 -188 9q-88 0 -198 -9v54q60 3 79 10q21 8 25 32
q3 13 3 39v554q0 41 -8 55q-14 24 -99 25v54h377q134 0 203 -41q48 -29 76 -79t28 -105q0 -73 -48 -133q-24 -28 -66 -44q-69 -27 -75 -30q40 -18 55 -34q25 -26 51 -79l70 -143q29 -61 55 -72q18 -8 51 -9v-54q-77 4 -111 4q-33 0 -109 -3q-19 28 -40 75l-89 198
q-31 65 -50 77q-28 19 -73 19h-26zM708 694h62q82 0 118 37q45 45 45 133q0 173 -154 173h-71v-343z" />
    <glyph glyph-name="copyright" unicode="&#xa9;" horiz-adv-x="1593" 
d="M805 1388q190 0 360 -104t260 -281q77 -151 77 -320q0 -141 -53.5 -270.5t-153.5 -228.5q-99 -100 -228.5 -153.5t-270.5 -53.5q-140 0 -269.5 53.5t-228.5 153.5q-99 99 -153 228.5t-54 268.5q0 200 104 371q101 167 281 259q150 77 329 77zM789 1311
q-120 0 -234.5 -48.5t-202.5 -135.5t-136 -203.5t-48 -241.5q0 -260 184 -444t444 -184q261 0 445 184t184 443q0 126 -48.5 243.5t-135.5 202.5q-189 184 -452 184zM1070 571h52q-3 -107 -49 -181q-87 -137 -272 -137q-84 0 -159 33t-124 92q-93 111 -93 303q0 169 76 279
q105 152 307 152q134 0 223 -85l41 85h35v-288h-49q-18 82 -49 131q-58 94 -179 94q-222 0 -222 -346q0 -163 48 -253q53 -98 183 -98q131 0 192 92q34 49 39 127z" />
    <glyph glyph-name="trademark" unicode="&#x2122;" horiz-adv-x="1932" 
d="M475 1310v-633q0 -41 9 -55q13 -23 99 -25v-55q-103 10 -196 10t-195 -10v55q58 1 79 9t25 32q3 13 3 39v633h-33q-85 0 -130 -57q-29 -38 -48 -120h-53l42 232h622l42 -232h-53q-20 90 -56 130q-43 47 -122 47h-35zM998 1246l-12 -569q-1 -52 19 -66q20 -13 88 -15v-54
q-82 5 -131 5q-42 0 -142 -5v54q59 2 79 10t25 31q3 10 3 40l13 557q0 52 -19 66q-20 13 -88 14v56q76 -6 148 -6q73 0 150 6l227 -526l229 526q74 -6 144 -6t144 6v-55q-74 -3 -92 -18q-16 -16 -15 -62l11 -558q1 -42 9 -55q14 -24 98 -26v-54q-114 9 -196 9q-81 0 -195 -9
v54q75 2 92 18q15 15 15 63l-10 562l-223 -520q-25 -58 -55 -149h-33q-23 68 -63 166z" />
    <glyph glyph-name="acute" unicode="&#xb4;" 
d="M422 1123l122 286h393l-425 -286h-90z" />
    <glyph glyph-name="dieresis" unicode="&#xa8;" 
d="M303 1416q54 0 94 -43q40 -42 40 -103q0 -60 -40 -103t-96 -43t-96 43t-40 103q0 62 40 103q41 43 98 43zM724 1416q55 0 95 -43q40 -42 40 -103q0 -60 -40 -103t-97 -43q-56 0 -96 43t-40 103t40 103t98 43z" />
    <glyph glyph-name="notequal" unicode="&#x2260;" 
d="M553 933l119 257l103 -47l-98 -210h311v-111h-362l-87 -186h450v-111h-502l-127 -271l-102 48l104 223h-327v111h379l87 186h-467v111h519z" />
    <glyph glyph-name="AE" unicode="&#xc6;" horiz-adv-x="1916" 
d="M1754 1365l58 -360h-65q-30 135 -70 192q-37 54 -90 74q-45 17 -117 17h-249v-540h229q56 1 77 18q30 25 39 89q3 23 6 63h76v-418h-76q-3 84 -16 115q-13 33 -41 46q-23 10 -64 10h-230v-486q0 -66 21 -86q24 -22 97 -22h107q114 1 172 45q60 44 114 158q20 44 37 99h65
l-66 -379h-990v76q89 2 123 16q37 15 45 59q5 22 5 68v212h-496l-127 -226q-28 -50 -28 -82q0 -37 43 -47q23 -5 87 -7v-76q-119 8 -205 8t-205 -8v76q77 3 119 29q50 32 116 145l645 1122h854zM502 514h449v789z" />
    <glyph glyph-name="Oslash" unicode="&#xd8;" horiz-adv-x="1368" 
d="M1210 1365h103l-164 -189q136 -190 136 -491q0 -306 -143 -500q-88 -121 -230 -176q-106 -42 -229 -42q-253 0 -415 163l-111 -130h-99l161 188q-137 198 -137 489q0 321 150 513q82 104 210 160q112 48 241 48q247 0 415 -163zM968 1089q-71 244 -273 244
q-128 0 -213 -103q-128 -155 -128 -547q0 -157 27 -312zM402 279q70 -247 279 -247q145 0 226 120q106 157 106 549q0 165 -23 295z" />
    <glyph glyph-name="infinity" unicode="&#x221e;" horiz-adv-x="1365" 
d="M625 558q-54 -83 -99 -130q-90 -94 -207 -94q-129 0 -220 95q-91 97 -91 243q0 170 109 281q97 99 235 99q197 0 349 -246q14 22 22 35q77 123 131 160q76 53 170 53q144 0 241 -108q92 -102 92 -253q0 -170 -111 -278q-50 -48 -118 -76t-136 -28q-137 0 -258 112
q-61 56 -109 135zM736 756q81 -131 144 -188q107 -96 219 -96q78 0 133 51q69 64 69 165q0 97 -68 151q-77 61 -211 61q-106 0 -182 -41q-43 -23 -74 -60q-32 -39 -30 -43zM583 619q-69 109 -116 163q-92 107 -217 107q-78 0 -127 -52q-60 -64 -60 -156t66 -142
q72 -55 193 -55q91 0 157 35q41 22 70 56q36 42 34 44z" />
    <glyph glyph-name="plusminus" unicode="&#xb1;" horiz-adv-x="1108" 
d="M95 604v170h370v366h177v-366h371v-170h-371v-318h-177v318h-370zM95 7v165h918v-165h-918z" />
    <glyph glyph-name="lessequal" unicode="&#x2264;" 
d="M939 1278v-98l-589 -380l589 -396v-260l-854 576v15zM85 89h854v-89h-854v89z" />
    <glyph glyph-name="greaterequal" unicode="&#x2265;" 
d="M85 89h854v-89h-854v89zM85 144v98l589 380l-589 395v261l854 -582v-14z" />
    <glyph glyph-name="yen" unicode="&#xa5;" horiz-adv-x="1107" 
d="M373 667l-57 150h-236v79h206l-87 230q-40 105 -72 133q-33 29 -108 37v76q141 -15 280 -15q140 0 282 15v-76q-47 -2 -73 -8q-60 -11 -60 -53q0 -16 23 -82l164 -450l171 435q30 75 30 103q0 33 -41 45q-21 6 -84 10v76q113 -8 190 -8q78 0 191 8v-76q-66 -6 -104 -24
q-51 -25 -83 -104l-109 -272h199v-79h-231l-60 -150h291v-79h-322v-376q0 -71 15 -97q18 -33 84 -41q32 -4 74 -5v-76q-177 15 -308 15t-308 -15v76q89 3 123 16q37 16 45 59q5 22 5 68v376h-323v79h293z" />
    <glyph glyph-name="mu" unicode="&#xb5;" horiz-adv-x="940" 
d="M972 107v-35l-205 -93q-4 -2 -10 -2q-19 0 -40.5 12.5t-31.5 30.5q-14 23 -37 117q-78 -77 -114 -105q-84 -63 -178 -63q-119 0 -182 88q-21 30 -42 90q0 -114 6 -161q5 -30 35 -171q15 -72 15 -108q0 -34 -21 -63q-27 -38 -77 -38q-59 0 -85 48q-14 25 -14 53
q0 47 16 131q59 340 60 703v396h196v-588q0 -116 16 -166q34 -107 141 -107q73 0 139 53q31 26 77 90v718h194v-685q0 -92 13 -123q17 -39 69 -39q26 0 60 17z" />
    <glyph glyph-name="partialdiff" unicode="&#x2202;" 
d="M290 1379l20 37q196 -76 338 -211q129 -121 222 -335q97 -223 97 -402q0 -210 -124 -349q-134 -150 -333 -150q-173 0 -296 111q-156 142 -156 369q0 170 91 299q72 102 195 149q82 31 157 31q52 0 105.5 -15.5t82.5 -39.5q7 -6 45 -43q7 -7 21 -20q-54 153 -111 241
q-52 81 -102.5 135.5t-124.5 108.5q-78 58 -127 84zM514 874q-85 0 -147 -67q-40 -43 -71 -138q-36 -111 -36 -219q0 -131 50 -264q34 -91 104 -136q42 -27 95 -27q76 0 146 72q44 45 73 135q36 109 36 232q0 144 -48 258q-66 154 -202 154z" />
    <glyph glyph-name="summation" unicode="&#x2211;" horiz-adv-x="1365" 
d="M101 1365h1089v-341h-40q-14 135 -80 204q-45 47 -117 64q-52 12 -137 12h-449l409 -757l-497 -898h537q117 0 180 21q185 61 238 297h40l-68 -445h-1105l509 919z" />
    <glyph glyph-name="product" unicode="&#x220f;" horiz-adv-x="1365" 
d="M-9 1365h1383v-39h-46q-89 0 -116 -37q-19 -28 -20 -126v-1438q0 -97 20 -126q25 -37 112 -37h49v-40h-592v40h44q91 0 116 37q20 29 20 126v1438q0 98 -20 126q-26 37 -116 37h-280q-90 0 -116 -37q-20 -29 -20 -126v-1438q0 -98 20 -126q25 -37 112 -37h49v-40h-593v40
h44q91 0 116 37q20 29 20 126v1438q0 98 -20 126q-26 37 -116 37h-50v39z" />
    <glyph glyph-name="pi" unicode="&#x3c0;" 
d="M1139 964v-134h-285q-30 -76 -38 -103q-22 -70 -21 -128v-325q0 -95 8 -123q16 -61 79 -61q12 0 44 7q28 7 49 11v-39l-259 -89q-19 -7 -25 -7q-16 0 -40 23.5t-40 55.5q-24 47 -24 127v314q0 73 26 145q10 23 68 109q36 59 57 83h-343l-5 -228q-5 -213 -52 -480
q-15 -87 -39 -121q-31 -42 -75 -42q-42 0 -70 33q-23 28 -23 62q0 48 46 141q62 144 84 300q28 198 29 334q-112 -2 -179 -37q-65 -38 -137 -131l-29 30l133 189q34 49 85 69q37 15 112 15h864z" />
    <glyph glyph-name="integral" unicode="&#x222b;" horiz-adv-x="1025" 
d="M628 1027v-1015q0 -162 -11 -227q-28 -170 -139 -253q-88 -65 -213 -65q-133 0 -214 66q-82 65 -82 162q0 57 39 96q37 37 91 37q51 0 88 -36q36 -34 36 -80q0 -31 -18 -59q-19 -30 -19 -50q0 -18 12 -34q19 -26 57 -26q65 0 103 79q39 80 39 221v1067q0 169 10 232
q28 171 140 254q88 64 213 64q134 0 215 -65q81 -66 81 -163q0 -56 -39 -96q-37 -37 -90 -37q-52 0 -89 36q-36 34 -36 80q0 32 17 59q20 30 20 49q0 24 -16 41q-19 20 -53 20q-142 0 -142 -357z" />
    <glyph glyph-name="ordfeminine" unicode="&#xaa;" horiz-adv-x="738" 
d="M678 821v-49q-59 -15 -103 -15q-115 0 -133 102q-56 -104 -177 -104q-81 0 -135 43q-60 47 -60 128q0 180 350 229v81q0 55 -15 77q-22 34 -75 34q-33 0 -60 -15q-24 -14 -24 -34q0 -7 2 -16q5 -26 5 -41q0 -72 -74 -72q-67 0 -67 64q0 68 66 115q70 50 174 50
q144 0 207 -86q38 -51 38 -197v-221q0 -42 5 -60q7 -21 34 -21q15 0 42 8zM420 1107q-66 -12 -105 -33q-68 -36 -68 -125q0 -114 83 -114q63 0 82 64q8 28 8 93v115zM57 654h634v-80h-634v80z" />
    <glyph glyph-name="ordmasculine" unicode="&#xba;" horiz-adv-x="738" 
d="M379 1398q130 0 212 -103q70 -88 70 -217q0 -128 -76 -220q-86 -103 -216 -103t-214 97q-78 89 -78 221t78 223q87 102 224 102zM370 1352q-112 0 -112 -277q0 -115 20 -191q22 -82 91 -82q71 0 94 90q17 70 17 174q0 136 -21 208q-24 78 -89 78zM52 654h634v-80h-634v80
z" />
    <glyph glyph-name="Omega" unicode="&#x2126;" horiz-adv-x="1365" 
d="M1426 275l-78 -275h-583v121q91 49 139 87.5t92 95.5q135 179 135 435q0 239 -114 407q-117 175 -334 175q-236 0 -357 -211q-91 -159 -91 -365q0 -137 45 -264t125 -218q65 -74 196 -142v-121h-585l-77 275h41q28 -86 84 -118q45 -26 115 -29l65 -2l224 -10v13
q-103 38 -161 70t-113 80q-104 92 -161 214t-57 252q0 174 101 332q198 310 607 310q347 0 542 -220q163 -185 163 -416q0 -218 -139 -390q-99 -122 -243 -187q-47 -21 -109 -45v-13l242 11q78 3 110 9q77 19 113 88q8 14 22 51h41z" />
    <glyph glyph-name="ae" unicode="&#xe6;" horiz-adv-x="1544" 
d="M1394 306h85q-24 -127 -97 -207q-111 -121 -311 -121q-284 0 -409 236q-25 -93 -69 -143q-83 -94 -236 -94q-126 0 -209 68q-90 73 -90 195q0 193 227 279q124 47 319 57v163q0 91 -25 128q-38 58 -125 58q-57 0 -101 -28q-40 -25 -40 -59q0 -14 4 -32q9 -40 9 -60
q0 -106 -107 -106q-96 0 -96 95q0 102 100 175q107 79 268 79q176 0 281 -97q125 97 286 97q145 0 254 -81q155 -114 166 -420h-609q5 -188 26 -258q53 -171 234 -171q138 0 212 111q38 57 53 136zM604 487q-119 -4 -181 -29q-107 -42 -107 -181q0 -84 35 -135
q36 -53 104 -53q49 0 85 28.5t51 79.5q13 45 13 151v139zM1211 577q-3 108 -19 189q-33 167 -143 167q-165 0 -178 -356h340z" />
    <glyph glyph-name="oslash" unicode="&#xf8;" horiz-adv-x="1014" 
d="M116 -22h-84l138 162q-39 54 -61 98q-49 101 -49 237q0 218 119 362q130 160 332 160q145 0 241 -76q19 -15 47 -41l93 109h81l-130 -155q40 -56 63 -105q49 -102 49 -238q0 -212 -117 -357q-130 -162 -332 -162q-136 0 -239 76q-22 16 -54 45zM343 232q10 -45 20 -76
q42 -124 143 -124q125 0 161 160q24 110 24 278q0 99 -9 185zM670 742q-12 59 -27 95q-18 45 -54 72.5t-78 27.5q-80 0 -127 -80q-61 -102 -61 -374q0 -82 8 -167z" />
    <glyph glyph-name="questiondown" unicode="&#xbf;" horiz-adv-x="875" 
d="M461 516h90q3 -48 3 -79q0 -87 -23 -151q-23 -62 -126 -181q-58 -66 -75 -104q-22 -46 -22 -93q0 -84 62 -129q44 -31 112 -31q116 0 181 85q36 47 49 145h81q-1 -174 -77 -265q-109 -130 -314 -130q-147 0 -238 78q-106 91 -106 247q0 130 92 229q37 40 170 131
q142 93 141 248zM489 989q65 0 113 -47q47 -47 47 -115q0 -66 -47 -114q-48 -47 -115 -47t-114 47q-47 48 -47 114q0 69 47 115q49 47 116 47z" />
    <glyph glyph-name="exclamdown" unicode="&#xa1;" horiz-adv-x="581" 
d="M361 510l74 -905h-289l74 905h141zM292 989q65 0 113 -47q47 -47 47 -115q0 -67 -47 -114t-114 -47q-68 0 -115 47q-47 48 -47 114q0 69 47 115q49 47 116 47z" />
    <glyph glyph-name="logicalnot" unicode="&#xac;" 
d="M709 0v440h-641v106h888v-546h-247z" />
    <glyph glyph-name="radical" unicode="&#x221a;" horiz-adv-x="1365" 
d="M1331 1686v-65h-236l-379 -1621h-212l-175 728h-295v65h468l161 -690l372 1583h296z" />
    <glyph glyph-name="florin" unicode="&#x192;" horiz-adv-x="1107" 
d="M968 963l-14 -83h-230l-90 -509q-63 -355 -141 -476q-103 -159 -294 -159q-98 0 -160 45q-64 47 -64 130q0 53 29 84q31 33 80 33q37 0 61 -18q26 -20 26 -55q0 -18 -10 -47q-13 -39 -13 -54q0 -38 46 -38q53 0 86 82q22 52 42 169l144 813h-148l13 82h27q94 -1 120 33
q23 27 54 145q25 94 47 136q88 169 304 169q114 0 176 -52q52 -44 52 -118q0 -53 -27 -84q-28 -33 -76 -33q-40 0 -67 21q-25 18 -25 51q0 19 12 52q11 31 11 47q0 37 -43 37q-85 0 -114 -163l-43 -240h229z" />
    <glyph glyph-name="approxequal" unicode="&#x2248;" 
d="M931 1004l42 -22q-47 -77 -122 -138q-86 -71 -181 -71q-43 0 -104 17q-12 4 -89 28q-131 40 -196 40q-75 0 -126 -46q-4 -4 -62 -63l-41 23q143 210 305 210q61 0 195 -43q120 -38 182 -38q74 0 153 61q24 19 44 42zM931 677l42 -23q-47 -76 -122 -137q-86 -71 -181 -71
q-43 0 -104 17q-12 4 -89 27q-131 40 -196 40q-75 0 -126 -46q-3 -4 -62 -63l-41 23q142 210 305 210q61 0 195 -42q120 -38 182 -38q107 0 197 103z" />
    <glyph glyph-name="Delta" unicode="&#x2206;" horiz-adv-x="1365" 
d="M739 1395l629 -1395h-1371l626 1395h116zM615 1166l-394 -881q-27 -61 -27 -92q0 -33 24 -48q18 -12 74 -12h774z" />
    <glyph glyph-name="guillemotleft" unicode="&#xab;" horiz-adv-x="924" 
d="M385 967h66l-151 -478l151 -489h-66l-300 489zM743 967h66l-151 -478l151 -489h-66l-300 489z" />
    <glyph glyph-name="guillemotright" unicode="&#xbb;" horiz-adv-x="924" 
d="M540 967l300 -478l-300 -489h-66l151 489l-151 478h66zM182 967l300 -478l-300 -489h-66l151 489l-151 478h66z" />
    <glyph glyph-name="ellipsis" unicode="&#x2026;" horiz-adv-x="1611" 
d="M271 300q64 0 112 -47q47 -47 47 -114t-47 -114q-48 -47 -114 -47t-114 47q-47 48 -47 114q0 68 47 114q49 47 116 47zM808 300q64 0 112 -47q47 -47 47 -114q0 -66 -47 -114q-48 -47 -114 -47t-114 47q-47 48 -47 114q0 68 47 114q49 47 116 47zM1345 300q64 0 112 -47
q47 -47 47 -114t-47 -114q-48 -47 -114 -47t-114 47q-47 48 -47 114q0 68 47 114q49 47 116 47z" />
    <glyph glyph-name="glyph172" horiz-adv-x="1107" 
 />
    <glyph glyph-name="Agrave" unicode="&#xc0;" horiz-adv-x="1391" 
d="M830 370h-448l-55 -145q-23 -63 -23 -91q0 -46 52 -56q25 -6 92 -9v-76q-136 10 -214 10q-77 0 -214 -10v76q52 3 78 9q67 15 110 88q28 47 52 109l454 1145l450 -1206q36 -95 84 -121q41 -20 122 -24v-76q-160 15 -309 15t-310 -15v76q77 4 101 8q46 10 46 48
q0 13 -15 77zM415 454h389l-179 537zM828 1480h-102l-503 268h426z" />
    <glyph glyph-name="Atilde" unicode="&#xc3;" horiz-adv-x="1391" 
d="M830 370h-448l-55 -145q-23 -63 -23 -91q0 -46 52 -56q25 -6 92 -9v-76q-136 10 -214 10q-77 0 -214 -10v76q52 3 78 9q67 15 110 88q28 47 52 109l454 1145l450 -1206q36 -95 84 -121q41 -20 122 -24v-76q-160 15 -309 15t-310 -15v76q77 4 101 8q46 10 46 48
q0 13 -15 77zM415 454h389l-179 537zM431 1497l-65 19q42 106 72 145q60 76 147 76q64 0 155 -46q98 -50 139 -50q53 0 89 39q17 18 46 61l66 -15q-39 -119 -92 -177q-54 -60 -140 -60q-44 0 -92 20q-24 10 -97 47q-62 31 -103 31q-72 0 -125 -90z" />
    <glyph glyph-name="Otilde" unicode="&#xd5;" horiz-adv-x="1368" 
d="M693 1398q179 0 327 -100q266 -179 266 -615q0 -307 -141 -497q-79 -106 -198 -162.5t-265 -56.5q-145 0 -264.5 57t-195.5 162q-139 193 -139 492q0 319 149 511q82 106 209 160q116 49 252 49zM689 1333q-118 0 -202 -105q-123 -153 -123 -533q0 -255 53 -436
q31 -106 104 -170q65 -57 163 -57q140 0 220 121q101 154 101 536q0 276 -55 437q-70 207 -261 207zM406 1497l-65 19q42 106 72 145q60 76 147 76q64 0 155 -46q98 -50 139 -50q53 0 89 39q17 18 46 61l66 -15q-39 -119 -92 -177q-54 -60 -140 -60q-44 0 -92 20
q-24 10 -97 47q-62 31 -103 31q-72 0 -125 -90z" />
    <glyph glyph-name="OE" unicode="&#x152;" horiz-adv-x="1974" 
d="M1009 1153v212h803l58 -360h-65q-30 135 -70 192q-37 53 -90 74q-44 17 -117 17h-271v-540h251q56 1 77 18q30 25 39 89q3 23 6 63h76v-418h-76q-3 83 -16 115q-13 33 -41 46q-23 10 -64 10h-252v-486q0 -66 21 -86q24 -22 99 -22h127q114 1 172 45q59 44 114 158
q20 44 37 99h65l-66 -379h-817v218q-44 -91 -92 -140q-99 -101 -264 -101q-166 0 -304 92q-145 97 -212 281q-54 148 -54 335q0 307 149 499q80 104 199 158q101 46 216 46q265 0 362 -235zM682 1323q-128 0 -215 -114q-113 -147 -113 -526q0 -279 57 -441q31 -89 101 -145
q71 -56 169 -56q165 0 246.5 161t81.5 488q0 265 -49 414q-33 101 -105 161q-70 58 -173 58z" />
    <glyph glyph-name="oe" unicode="&#x153;" horiz-adv-x="1637" 
d="M1487 306h84q-25 -129 -97 -207q-110 -121 -311 -121q-208 0 -340 140q-135 -140 -310 -140q-199 0 -328 151q-119 140 -119 350q0 206 119 350q132 160 338 160q177 0 304 -132q134 132 321 132q148 0 257 -81q161 -119 166 -444h-609q3 -155 27 -234q50 -171 230 -171
q140 0 214 111q39 58 54 136zM514 933q-184 0 -184 -453q0 -187 32 -308q37 -138 151 -138q120 0 156 150q28 115 28 283q0 218 -34 334q-39 132 -149 132zM1305 553q-5 132 -21 213q-33 167 -142 167q-122 0 -161 -193q-12 -62 -19 -187h343z" />
    <glyph glyph-name="endash" unicode="&#x2013;" horiz-adv-x="1107" 
d="M131 469v94h845v-94h-845z" />
    <glyph glyph-name="emdash" unicode="&#x2014;" horiz-adv-x="1348" 
d="M0 469v94h1348v-94h-1348z" />
    <glyph glyph-name="quotedblleft" unicode="&#x201c;" horiz-adv-x="830" 
d="M624 1377h90q-98 -103 -114 -218q51 -3 82 -28q43 -35 43 -99t-41 -102q-38 -35 -97 -35q-65 0 -104 43q-38 41 -38 112q0 157 179 327zM284 1377h89q-97 -103 -114 -218q51 -3 82 -28q43 -35 43 -100q0 -62 -41 -101q-38 -35 -97 -35q-66 0 -104 43q-38 41 -38 112
q0 157 180 327z" />
    <glyph glyph-name="quotedblright" unicode="&#x201d;" horiz-adv-x="830" 
d="M206 907h-89q96 100 114 217q-51 3 -83 28q-43 35 -43 100q0 63 41 101q38 35 97 35q66 0 104 -43q38 -42 38 -112q0 -160 -179 -326zM547 907h-89q96 100 114 217q-51 3 -83 28q-43 35 -43 100q0 63 41 101q38 35 97 35q66 0 104 -43q38 -42 38 -112q0 -160 -179 -326z
" />
    <glyph glyph-name="quoteleft" unicode="&#x2018;" horiz-adv-x="489" 
d="M284 1377h89q-97 -103 -114 -218q51 -3 82 -28q43 -35 43 -100q0 -62 -41 -101q-38 -35 -97 -35q-66 0 -104 43q-38 41 -38 112q0 157 180 327z" />
    <glyph glyph-name="quoteright" unicode="&#x2019;" horiz-adv-x="489" 
d="M206 907h-89q96 100 114 217q-51 3 -83 28q-43 35 -43 100q0 63 41 101q38 35 97 35q66 0 104 -43q38 -42 38 -112q0 -160 -179 -326z" />
    <glyph glyph-name="divide" unicode="&#xf7;" horiz-adv-x="1108" 
d="M95 607v164h918v-164h-918zM556 493q56 0 97 -41q41 -40 41 -99q0 -58 -41 -99t-99 -41t-99 41t-41 99q0 59 41 99q42 41 101 41zM556 1165q56 0 97 -41t41 -99t-41 -99t-99 -41t-99 41t-41 99q0 59 41 99q42 41 101 41z" />
    <glyph glyph-name="lozenge" unicode="&#x25ca;" horiz-adv-x="1365" 
d="M683 1419l531 -736l-531 -736l-532 736zM683 1238l-404 -555l404 -554l403 554z" />
    <glyph glyph-name="ydieresis" unicode="&#xff;" horiz-adv-x="1095" 
d="M508 26l-304 753q-32 77 -67 106q-31 24 -100 31v58q144 -11 260 -11q117 0 260 11v-58q-40 -3 -62 -6q-46 -8 -46 -38q0 -11 17 -62l174 -482l192 466q25 59 25 77q0 33 -45 40q-25 4 -65 5v58q97 -8 161 -8q65 0 165 8v-58q-61 -6 -94 -35q-34 -30 -70 -115l-400 -931
q-71 -166 -180 -216q-59 -28 -156 -28q-20 0 -52 3v116q27 -5 52 -5q85 0 138 27q74 39 119 133zM382 1416q54 0 94 -43q40 -42 40 -103q0 -60 -40 -103t-96 -43t-96 43t-40 103q0 62 40 103q41 43 98 43zM803 1416q55 0 95 -43q40 -42 40 -103q0 -60 -40 -103t-97 -43
q-56 0 -96 43t-40 103t40 103t98 43z" />
    <glyph glyph-name="Ydieresis" unicode="&#x178;" horiz-adv-x="1281" 
d="M506 588l-268 538q-50 99 -96 135q-41 28 -111 35v76q149 -15 298 -15q148 0 298 15v-76q-49 -2 -75 -7q-60 -11 -60 -54q0 -27 28 -82l225 -450l219 435q34 68 34 102q0 37 -47 48q-24 5 -80 8v76q112 -8 194 -8q83 0 195 8v-76q-70 -7 -107 -26q-44 -23 -84 -102
l-293 -580v-376q1 -71 15 -97q18 -33 84 -41q32 -4 74 -5v-76q-179 15 -309 15t-307 -15v76q89 3 123 16q37 16 45 59q5 22 5 68v376zM511 1760q58 0 101 -43q43 -42 43 -103q0 -60 -43 -103t-103 -43t-103 43t-43 103q0 61 43 103q44 43 105 43zM890 1760q59 0 101 -43
q43 -42 43 -103q0 -60 -43 -103q-42 -43 -103 -43q-60 0 -103 43t-43 103q0 61 43 103q44 43 105 43z" />
    <glyph glyph-name="uni2215" unicode="&#x2215;" horiz-adv-x="134" 
d="M-373 0l773 1332h106l-773 -1332h-106z" />
    <glyph glyph-name="currency" unicode="&#xa4;" horiz-adv-x="1365" 
d="M92 201l197 199q-99 131 -99 289q0 148 100 286l-202 201l103 102l200 -199q143 100 293 100q149 0 289 -99l199 197l102 -102l-198 -197q101 -144 101 -291q0 -145 -98 -286l199 -199l-101 -103l-199 199q-138 -100 -292 -100q-145 0 -294 100l-199 -199zM680 1013
q-130 0 -226 -96q-94 -94 -94 -229q0 -134 95 -229t228 -95q134 0 230 95q94 95 94 228q0 138 -94 231q-97 95 -233 95z" />
    <glyph glyph-name="guilsinglleft" unicode="&#x2039;" horiz-adv-x="566" 
d="M384 967h66l-150 -478l150 -489h-66l-299 489z" />
    <glyph glyph-name="guilsinglright" unicode="&#x203a;" horiz-adv-x="566" 
d="M182 967l300 -478l-300 -489h-66l151 489l-151 478h66z" />
    <glyph glyph-name="uniF001" unicode="&#xf001;" horiz-adv-x="1323" 
d="M444 967h233v-79h-233v-712q0 -83 27 -104q25 -17 120 -21v-58q-168 13 -276 13t-276 -13v58q96 4 120 21q27 21 27 104v712h-146v76q91 1 123 17q26 14 36 55q3 14 8 64q11 99 26 139q30 84 111 129q72 40 166 40q116 0 191 -56q63 -47 63 -129q0 -95 -94 -95
q-95 0 -95 69q0 15 7 54q4 21 4 38q0 25 -14 42q-15 20 -40 20q-88 0 -88 -189v-195zM1127 1006v-830q0 -83 27 -104q24 -16 120 -21v-58q-168 13 -277 13q-107 0 -276 -13v58q96 4 120 21q28 22 27 104v559q0 61 -4.5 86.5t-16.5 37.5q-24 22 -123 22v53q206 16 403 72z
M988 1414q59 0 101 -46t42 -112q0 -67 -41 -112q-40 -45 -101 -45t-103 46t-42 112q0 67 41 112q40 45 103 45z" />
    <glyph glyph-name="uniF002" unicode="&#xf002;" horiz-adv-x="1300" 
d="M723 1332q197 14 392 71v-1227q0 -83 27 -104q25 -17 120 -21v-58q-168 13 -276 13t-276 -13v58q95 5 120 21q27 21 27 104v955q0 61 -4 85.5t-16 37.5q-19 21 -82 22q9 -28 9 -54q0 -94 -94 -94q-95 0 -95 68q0 18 5 44t5 43q0 23 -12 42q-13 21 -40 21q-89 0 -89 -184
v-195h233v-79h-233v-712q0 -83 27 -104q25 -17 120 -21v-58q-168 13 -276 13t-276 -13v58q96 4 120 21q27 21 27 104v712h-146v76q91 1 123 17q26 14 35 55q4 14 9 64q11 99 26 139q30 84 111 129q72 40 166 40q141 0 213 -76z" />
    <glyph glyph-name="daggerdbl" unicode="&#x2021;" horiz-adv-x="1108" 
d="M459 842l-308 -22v191l308 -23l-13 343h216l-13 -343l308 23v-191l-308 22v-590l308 23v-191l-308 22l13 -360h-216l13 360l-308 -22v191l308 -23v590z" />
    <glyph glyph-name="uni2219" unicode="&#x2219;" horiz-adv-x="537" 
d="M271 662q64 0 112 -47q47 -47 47 -114t-47 -114q-48 -47 -114 -47t-114 47q-47 48 -47 114q0 68 47 114q49 47 116 47z" />
    <glyph glyph-name="quotesinglbase" unicode="&#x201a;" horiz-adv-x="489" 
d="M206 -219h-89q96 99 114 218q-50 2 -83 28q-43 34 -43 99q0 63 41 101q38 36 97 36q66 0 104 -43q38 -42 38 -112q0 -161 -179 -327z" />
    <glyph glyph-name="quotedblbase" unicode="&#x201e;" horiz-adv-x="830" 
d="M206 -224h-89q96 99 114 218q-50 2 -83 28q-43 34 -43 99q0 63 41 101q38 36 97 36q66 0 104 -43q38 -42 38 -112q0 -162 -179 -327zM547 -224h-89q96 100 114 218q-50 2 -83 28q-43 34 -43 100q0 62 41 100q38 36 97 36q66 0 104 -43q38 -42 38 -112q0 -162 -179 -327z
" />
    <glyph glyph-name="perthousand" unicode="&#x2030;" horiz-adv-x="2050" 
d="M369 1376q127 0 211 -96q81 -93 81 -230q0 -134 -81 -230q-86 -102 -218 -102q-143 0 -229 108q-72 89 -72 217q0 134 78 226q91 107 230 107zM361 1313q-62 0 -91.5 -65.5t-29.5 -203.5q0 -123 25 -190q27 -73 99 -73t97 78q21 67 21 188q0 127 -24 192q-27 74 -97 74z
M235 0l792 1365h107l-793 -1365h-106zM1015 647q127 0 211 -96q81 -92 81 -230q0 -134 -81 -230q-86 -102 -218 -102q-142 0 -229 108q-72 89 -72 217q0 134 78 226q90 107 230 107zM1007 585q-121 0 -121 -268q0 -124 25 -192q27 -73 98 -73q73 0 98 78q21 67 21 189
q0 127 -23 191q-28 75 -98 75zM1696 648q128 0 211 -96q81 -93 81 -231q0 -133 -81 -230q-86 -102 -217 -102q-143 0 -230 108q-72 89 -72 217q0 134 78 227q91 107 230 107zM1688 585q-121 0 -121 -269q0 -124 25 -192q27 -73 98 -73q73 0 98 79q21 67 21 189
q0 126 -24 191q-27 75 -97 75z" />
    <glyph glyph-name="Acircumflex" unicode="&#xc2;" horiz-adv-x="1391" 
d="M830 370h-448l-55 -145q-23 -63 -23 -91q0 -46 52 -56q25 -6 92 -9v-76q-136 10 -214 10q-77 0 -214 -10v76q52 3 78 9q67 15 110 88q28 47 52 109l454 1145l450 -1206q36 -95 84 -121q41 -20 122 -24v-76q-160 15 -309 15t-310 -15v76q77 4 101 8q46 10 46 48
q0 13 -15 77zM415 454h389l-179 537zM337 1456l379 324l378 -324h-96l-282 127l-282 -127h-97z" />
    <glyph glyph-name="Ecircumflex" unicode="&#xca;" horiz-adv-x="1193" 
d="M1110 379l-66 -379h-990v76q90 2 123 16q36 15 45 59q5 23 5 68v927q0 71 -15 97q-18 34 -84 42q-35 4 -74 4v76h976l58 -360h-65q-29 134 -70 192q-37 54 -90 74q-45 17 -117 17h-249v-540h229q56 1 77 18q30 25 39 89q3 23 6 63h76v-418h-76q-3 82 -16 115t-41 46
q-23 10 -64 10h-230v-486q0 -63 22 -85q26 -23 96 -23h107q114 1 172 45q59 43 114 158q20 44 37 99h65zM203 1456l379 324l378 -324h-96l-282 127l-282 -127h-97z" />
    <glyph glyph-name="Aacute" unicode="&#xc1;" horiz-adv-x="1391" 
d="M830 370h-448l-55 -145q-23 -63 -23 -91q0 -46 52 -56q25 -6 92 -9v-76q-136 10 -214 10q-77 0 -214 -10v76q52 3 78 9q67 15 110 88q28 47 52 109l454 1145l450 -1206q36 -95 84 -121q41 -20 122 -24v-76q-160 15 -309 15t-310 -15v76q77 4 101 8q46 10 46 48
q0 13 -15 77zM415 454h389l-179 537zM623 1480l179 268h426l-503 -268h-102z" />
    <glyph glyph-name="Edieresis" unicode="&#xcb;" horiz-adv-x="1193" 
d="M1110 379l-66 -379h-990v76q90 2 123 16q36 15 45 59q5 23 5 68v927q0 71 -15 97q-18 34 -84 42q-35 4 -74 4v76h976l58 -360h-65q-29 134 -70 192q-37 54 -90 74q-45 17 -117 17h-249v-540h229q56 1 77 18q30 25 39 89q3 23 6 63h76v-418h-76q-3 82 -16 115t-41 46
q-23 10 -64 10h-230v-486q0 -63 22 -85q26 -23 96 -23h107q114 1 172 45q59 43 114 158q20 44 37 99h65zM394 1760q58 0 101 -43q43 -42 43 -103q0 -60 -43 -103t-103 -43t-103 43t-43 103q0 61 43 103q44 43 105 43zM773 1760q59 0 101 -43q43 -42 43 -103q0 -60 -43 -103
q-42 -43 -103 -43q-60 0 -103 43t-43 103q0 61 43 103q44 43 105 43z" />
    <glyph glyph-name="Egrave" unicode="&#xc8;" horiz-adv-x="1193" 
d="M1110 379l-66 -379h-990v76q90 2 123 16q36 15 45 59q5 23 5 68v927q0 71 -15 97q-18 34 -84 42q-35 4 -74 4v76h976l58 -360h-65q-29 134 -70 192q-37 54 -90 74q-45 17 -117 17h-249v-540h229q56 1 77 18q30 25 39 89q3 23 6 63h76v-418h-76q-3 82 -16 115t-41 46
q-23 10 -64 10h-230v-486q0 -63 22 -85q26 -23 96 -23h107q114 1 172 45q59 43 114 158q20 44 37 99h65zM785 1480h-102l-503 268h426z" />
    <glyph glyph-name="Iacute" unicode="&#xcd;" horiz-adv-x="724" 
d="M227 212v941q0 71 -15 97q-18 33 -84 41q-35 4 -74 5v76q175 -15 308 -15t308 15v-76q-88 -2 -123 -16q-37 -15 -45 -59q-5 -22 -5 -68v-941q1 -71 15 -97q18 -33 84 -41q32 -4 74 -5v-76q-177 15 -308 15t-308 -15v76q89 3 123 16q36 16 45 59q5 23 5 68zM248 1480
l159 268h398l-455 -268h-102z" />
    <glyph glyph-name="Icircumflex" unicode="&#xce;" horiz-adv-x="724" 
d="M227 212v941q-1 71 -15 97q-18 33 -84 41q-35 4 -74 5v76q175 -15 308 -15t308 15v-76q-88 -2 -123 -16q-37 -15 -45 -59q-5 -22 -5 -68v-941q0 -71 15 -97q18 -33 84 -41q32 -4 74 -5v-76q-177 15 -308 15t-308 -15v76q89 3 123 16q36 16 45 59q5 23 5 68zM10 1456
l352 324l351 -324h-97l-254 127l-255 -127h-97z" />
    <glyph glyph-name="Idieresis" unicode="&#xcf;" horiz-adv-x="724" 
d="M227 212v941q0 71 -15 97q-18 33 -84 41q-35 4 -74 5v76q175 -15 308 -15t308 15v-76q-88 -2 -123 -16q-37 -15 -45 -59q-5 -22 -5 -68v-941q1 -71 15 -97q18 -33 84 -41q32 -4 74 -5v-76q-177 15 -308 15t-308 -15v76q89 3 123 16q36 16 45 59q5 23 5 68zM185 1754
q56 0 97 -41t41 -98q0 -58 -41 -99t-98 -41q-58 0 -99 41t-41 98q0 59 41 99q42 41 100 41zM542 1754q56 0 97 -41t41 -98q0 -58 -41 -99t-98 -41q-58 0 -99 41t-41 98q0 59 41 99q42 41 100 41z" />
    <glyph glyph-name="Igrave" unicode="&#xcc;" horiz-adv-x="724" 
d="M227 212v941q-1 71 -15 97q-18 33 -84 41q-35 4 -74 5v76q175 -15 308 -15t308 15v-76q-88 -2 -123 -16q-37 -15 -45 -59q-5 -22 -5 -68v-941q0 -71 15 -97q18 -33 84 -41q32 -4 74 -5v-76q-177 15 -308 15t-308 -15v76q89 3 123 16q36 16 45 59q5 23 5 68zM490 1480
h-102l-455 268h398z" />
    <glyph glyph-name="Oacute" unicode="&#xd3;" horiz-adv-x="1368" 
d="M693 1398q179 0 327 -100q266 -179 266 -615q0 -307 -141 -497q-79 -106 -198 -162.5t-265 -56.5q-145 0 -264.5 57t-195.5 162q-139 193 -139 492q0 319 149 511q82 106 209 160q116 49 252 49zM689 1333q-118 0 -202 -105q-123 -153 -123 -533q0 -255 53 -436
q31 -106 104 -170q65 -57 163 -57q140 0 220 121q101 154 101 536q0 276 -55 437q-70 207 -261 207zM564 1480l179 268h426l-503 -268h-102z" />
    <glyph glyph-name="Ocircumflex" unicode="&#xd4;" horiz-adv-x="1368" 
d="M693 1398q179 0 327 -100q266 -179 266 -615q0 -307 -141 -497q-79 -106 -198 -162.5t-265 -56.5q-145 0 -264.5 57t-195.5 162q-139 193 -139 492q0 319 149 511q82 106 209 160q116 49 252 49zM689 1333q-118 0 -202 -105q-123 -153 -123 -533q0 -255 53 -436
q31 -106 104 -170q65 -57 163 -57q140 0 220 121q101 154 101 536q0 276 -55 437q-70 207 -261 207zM305 1456l379 324l378 -324h-96l-282 127l-282 -127h-97z" />
    <glyph glyph-name="glyph210" horiz-adv-x="1365" 
d="M984 1416v-20q0 -162 -127 -266q-80 -65 -146 -68q-13 -1 -31 -1q0 141 82 239q91 104 222 116zM1277 935q-65 -49 -98 -92q-67 -84 -67 -192q0 -150 111 -250q34 -31 92 -56q-65 -161 -139 -256q-110 -143 -208 -143q-39 0 -82 18l-83 34q-17 7 -75 7q-73 0 -98 -10
l-87 -35q-41 -17 -79 -17q-54 0 -113.5 43.5t-112.5 123.5q-172 256 -172 526q0 176 100 306q103 135 281 135q67 0 160 -36q68 -26 101 -26q31 0 85 21q71 27 101 35q36 10 87 10q189 0 296 -146z" />
    <glyph glyph-name="Ograve" unicode="&#xd2;" horiz-adv-x="1368" 
d="M693 1398q179 0 327 -100q266 -179 266 -615q0 -307 -141 -497q-79 -106 -198 -162.5t-265 -56.5q-145 0 -264.5 57t-195.5 162q-139 193 -139 492q0 319 149 511q82 106 209 160q116 49 252 49zM689 1333q-118 0 -202 -105q-123 -153 -123 -533q0 -255 53 -436
q31 -106 104 -170q65 -57 163 -57q140 0 220 121q101 154 101 536q0 276 -55 437q-70 207 -261 207zM847 1480h-102l-503 268h426z" />
    <glyph glyph-name="Uacute" unicode="&#xda;" horiz-adv-x="1416" 
d="M1201 1153v-666q0 -150 -31 -230q-55 -145 -185 -216q-115 -64 -277 -64q-254 0 -391 155q-73 84 -91 195q-10 64 -10 140v686q0 71 -15 97q-18 33 -84 41q-35 4 -74 5v76q175 -15 308 -15t308 15v-76q-88 -2 -123 -16q-37 -15 -45 -59q-5 -22 -5 -68v-737
q0 -148 56 -223q73 -97 240 -97q100 0 179 38.5t117 106.5q45 81 45 265v647q-1 71 -15 97q-18 33 -84 41q-35 4 -74 5v76q117 -7 213 -7q95 0 211 7v-76q-88 -2 -123 -16q-37 -15 -45 -59q-5 -20 -5 -68zM637 1480l179 268h426l-503 -268h-102z" />
    <glyph glyph-name="Ucircumflex" unicode="&#xdb;" horiz-adv-x="1416" 
d="M1201 1153v-666q0 -150 -31 -230q-55 -145 -185 -216q-115 -64 -277 -64q-254 0 -391 155q-73 84 -91 195q-10 64 -10 140v686q0 71 -15 97q-18 33 -84 41q-35 4 -74 5v76q175 -15 308 -15t308 15v-76q-88 -2 -123 -16q-37 -15 -45 -59q-5 -22 -5 -68v-737
q0 -148 56 -223q73 -97 240 -97q100 0 179 38.5t117 106.5q45 81 45 265v647q-1 71 -15 97q-18 33 -84 41q-35 4 -74 5v76q117 -7 213 -7q95 0 211 7v-76q-88 -2 -123 -16q-37 -15 -45 -59q-5 -20 -5 -68zM390 1456l379 324l378 -324h-96l-282 127l-282 -127h-97z" />
    <glyph glyph-name="Ugrave" unicode="&#xd9;" horiz-adv-x="1416" 
d="M1201 1153v-666q0 -150 -31 -230q-55 -145 -185 -216q-115 -64 -277 -64q-254 0 -391 155q-73 84 -91 195q-10 64 -10 140v686q0 71 -15 97q-18 33 -84 41q-35 4 -74 5v76q175 -15 308 -15t308 15v-76q-88 -2 -123 -16q-37 -15 -45 -59q-5 -22 -5 -68v-737
q0 -148 56 -223q73 -97 240 -97q100 0 179 38.5t117 106.5q45 81 45 265v647q-1 71 -15 97q-18 33 -84 41q-35 4 -74 5v76q117 -7 213 -7q95 0 211 7v-76q-88 -2 -123 -16q-37 -15 -45 -59q-5 -20 -5 -68zM902 1480h-102l-503 268h426z" />
    <glyph glyph-name="dotlessi" unicode="&#x131;" horiz-adv-x="652" 
d="M457 1006v-830q0 -83 27 -104q24 -17 120 -21v-58q-168 13 -277 13q-107 0 -276 -13v58q96 4 120 21q27 21 27 104v559q0 61 -4.5 86.5t-16.5 37.5q-24 22 -123 22v53q206 16 403 72z" />
    <glyph glyph-name="circumflex" unicode="&#x2c6;" 
d="M167 1099l345 343l345 -343h-96l-249 148l-249 -148h-96z" />
    <glyph glyph-name="tilde" unicode="&#x2dc;" 
d="M222 1144l-64 18q43 108 72 146q59 76 146 76q64 0 154 -47q97 -50 138 -50q53 0 88 39q16 17 45 62l66 -16q-38 -118 -91 -177q-53 -60 -139 -60q-45 0 -92 20q-22 10 -96 47q-62 32 -102 32q-72 0 -125 -90z" />
    <glyph glyph-name="macron" unicode="&#xaf;" 
d="M160 1181v125h705v-125h-705z" />
    <glyph glyph-name="breve" unicode="&#x2d8;" 
d="M727 1419h80q-13 -89 -41 -150q-34 -70 -101 -113q-68 -43 -153 -43q-120 0 -201 81q-73 72 -95 225h80q42 -66 77 -97q62 -54 139 -54q76 0 138 54q36 32 77 97z" />
    <glyph glyph-name="dotaccent" unicode="&#x2d9;" 
d="M514 1416q54 0 94 -43q40 -42 40 -103q0 -60 -40 -103t-96 -43t-96 43t-40 103q0 61 40 103q40 43 98 43z" />
    <glyph glyph-name="ring" unicode="&#x2da;" 
d="M515 1465q73 0 127 -54q53 -53 53 -129t-53 -129q-54 -54 -130 -54t-129 54q-54 53 -54 129q0 77 54 129q55 54 132 54zM511 1377q-39 0 -66 -28q-28 -28 -28 -67t28 -67t67 -28t67 28t28 67q0 40 -28 67q-28 28 -68 28z" />
    <glyph glyph-name="cedilla" unicode="&#xb8;" 
d="M504 0h95l-63 -106q176 -3 176 -139q0 -73 -55 -118q-50 -41 -131 -41q-70 0 -171 36v70q72 -21 114 -21q38 0 61 23q21 21 21 55q0 82 -122 82q-6 0 -20 -1z" />
    <glyph glyph-name="hungarumlaut" unicode="&#x2dd;" 
d="M315 1123l173 286h249l-322 -286h-100zM634 1123l183 286h249l-332 -286h-100z" />
    <glyph glyph-name="ogonek" unicode="&#x2db;" 
d="M633 27l87 -16q-61 -32 -107 -65q-69 -49 -69 -103q0 -39 30 -63q25 -20 67 -20q33 0 79 13v-70q-80 -28 -150 -28q-85 0 -136 40q-54 44 -54 108q0 59 53 104q60 50 200 100z" />
    <glyph glyph-name="caron" unicode="&#x2c7;" 
d="M857 1436l-345 -343l-345 343h96l249 -148l249 148h96z" />
    <glyph glyph-name="Lslash" unicode="&#x141;" horiz-adv-x="1130" 
d="M227 599l-173 -102v95l173 103v458q0 71 -15 97q-18 33 -84 41q-35 4 -74 5v76q175 -15 308 -15t308 15v-76q-88 -2 -123 -16q-37 -15 -45 -59q-5 -22 -5 -68v-341l281 160v-95l-281 -161v-530q0 -66 21 -86q24 -22 97 -22h107q114 1 172 45q59 43 114 157q20 44 37 99
h65l-66 -379h-990v76q90 2 123 16q36 15 45 59q5 23 5 68v380z" />
    <glyph glyph-name="lslash" unicode="&#x142;" horiz-adv-x="657" 
d="M459 1403v-575l146 85v-96l-146 -86v-555q0 -83 27 -104q24 -17 120 -21v-58q-169 13 -276 13q-108 0 -277 -13v58q96 4 120 21q27 21 27 104v440l-145 -84v96l145 85v418q0 61 -4.5 86.5t-16.5 37.5q-24 23 -123 22v54q199 14 403 72z" />
    <glyph glyph-name="Scaron" unicode="&#x160;" horiz-adv-x="1134" 
d="M115 447h71q21 -141 75 -227q50 -79 139 -123q71 -36 146 -36q120 0 197 77q65 66 65 156q0 114 -105 195q-50 38 -192 116q-214 118 -276 182q-98 100 -98 242q0 176 137 272q123 86 297 86q134 0 231 -61q32 -20 72 -56l69 131h44v-422h-71q-20 120 -69 198
q-84 133 -239 133q-108 0 -173 -64q-62 -61 -62 -151q0 -82 68 -138q34 -28 132 -81q182 -100 267 -153q100 -63 145 -130q58 -87 58 -205q0 -178 -124 -296q-119 -115 -309 -115q-158 0 -287 77q-35 21 -82 57l-82 -156h-44v492zM952 1775l-378 -324l-379 324h97l282 -127
l282 127h96z" />
    <glyph glyph-name="scaron" unicode="&#x161;" horiz-adv-x="924" 
d="M122 -35v370h60q11 -82 37 -140q29 -66 85 -104.5t123 -38.5q75 0 127 47q51 46 51 109q0 64 -64 111q-37 26 -147 87q-173 95 -215 143q-59 67 -59 165q0 127 97 201q99 74 243 74q128 0 230 -81l50 108h39v-340h-60q-11 80 -34 130q-50 108 -179 108q-75 0 -128 -44
q-48 -40 -48 -95q0 -49 46 -87q24 -20 103 -60q131 -66 191 -105q74 -47 104 -83q51 -59 51 -156q0 -131 -95 -219q-95 -87 -252 -87q-118 0 -204 58q-24 15 -57 44l-56 -115h-39zM807 1436l-345 -343l-345 343h96l249 -148l249 148h96z" />
    <glyph glyph-name="Zcaron" unicode="&#x17d;" horiz-adv-x="1177" 
d="M49 0l695 1288h-199q-101 0 -158 -26q-114 -48 -187 -253h-71l61 356h893l-694 -1288h313q108 1 161 29q81 44 145 173q26 53 49 125h71l-69 -404h-1010zM1014 1775l-378 -324l-379 324h97l282 -127l282 127h96z" />
    <glyph glyph-name="zcaron" unicode="&#x17e;" horiz-adv-x="948" 
d="M54 0l500 901h-130q-88 -1 -130 -25q-68 -38 -137 -214h-62l52 305h736l-503 -901h150q92 1 138 29q49 30 106 151q19 42 35 91h63l-60 -337h-758zM863 1436l-345 -384l-345 384h96l249 -148l249 148h96z" />
    <glyph glyph-name="brokenbar" unicode="&#xa6;" 
d="M439 1365h147v-700h-147v700zM439 314h147v-655h-147v655z" />
    <glyph glyph-name="Eth" unicode="&#xd0;" horiz-adv-x="1347" 
d="M226 677h-173v79h173v390q0 71 -15 97q-18 34 -84 42q-35 4 -74 4v76h580q143 0 244 -34.5t181 -109.5q93 -90 146 -221q60 -148 60 -312q0 -222 -105 -404q-114 -196 -335 -256q-104 -28 -257 -28h-514v76q90 2 123 16q36 15 45 59q5 23 5 68v458zM496 1288v-532h252
v-79h-252v-508q0 -60 24 -76q22 -16 82 -16q206 0 286 114q105 148 105 514q0 307 -98 456q-84 127 -276 127h-123z" />
    <glyph glyph-name="eth" unicode="&#xf0;" horiz-adv-x="1027" 
d="M318 1357l60 39l119 -136l155 98l43 -69l-142 -91l146 -165q108 -122 169 -218q93 -146 93 -330q0 -193 -109 -336q-132 -171 -335 -171q-192 0 -321 143q-130 143 -130 363q0 195 110 336q133 169 338 169q14 0 35 -2l-93 150l-151 -95l-43 67l151 97zM506 933
q-72 0 -119 -74q-57 -91 -57 -338q0 -172 26 -295q41 -192 165 -192q123 0 156 155q21 97 21 235q0 195 -28 324q-40 185 -164 185z" />
    <glyph glyph-name="Yacute" unicode="&#xdd;" horiz-adv-x="1281" 
d="M506 588l-268 538q-50 99 -96 135q-41 28 -111 35v76q149 -15 298 -15q148 0 298 15v-76q-49 -2 -75 -7q-60 -11 -60 -54q0 -27 28 -82l225 -450l219 435q34 68 34 102q0 37 -47 48q-24 5 -80 8v76q112 -8 194 -8q83 0 195 8v-76q-70 -7 -107 -26q-44 -23 -84 -102
l-293 -580v-376q1 -71 15 -97q18 -33 84 -41q32 -4 74 -5v-76q-179 15 -309 15t-307 -15v76q89 3 123 16q37 16 45 59q5 22 5 68v376zM557 1480l179 268h426l-503 -268h-102z" />
    <glyph glyph-name="yacute" unicode="&#xfd;" horiz-adv-x="1095" 
d="M508 26l-304 753q-32 77 -67 106q-31 24 -100 31v58q144 -11 260 -11q117 0 260 11v-58q-40 -3 -62 -6q-46 -8 -46 -38q0 -11 17 -62l174 -482l192 466q25 59 25 77q0 33 -45 40q-25 4 -65 5v58q97 -8 161 -8q65 0 165 8v-58q-61 -6 -94 -35q-34 -30 -70 -115l-400 -931
q-71 -166 -180 -216q-59 -28 -156 -28q-20 0 -52 3v116q27 -5 52 -5q85 0 138 27q74 39 119 133zM475 1123l122 286h393l-425 -286h-90z" />
    <glyph glyph-name="Thorn" unicode="&#xde;" horiz-adv-x="1207" 
d="M497 335v-123q1 -71 15 -97q18 -33 84 -41q32 -4 74 -5v-76q-177 15 -308 15t-308 -15v76q89 3 123 16q36 16 45 59q5 23 5 68v941q0 71 -15 97q-18 33 -84 41q-35 4 -74 5v76q175 -15 308 -15t308 15v-76q-88 -2 -123 -16q-37 -15 -45 -59q-5 -22 -5 -68v-33h156
q118 0 191.5 -15t132.5 -52q79 -49 127 -139q45 -86 45 -183q0 -135 -82 -242q-118 -154 -384 -154h-186zM497 412h89q150 0 218 73q75 80 75 239q0 163 -71 244q-66 75 -216 75h-95v-631z" />
    <glyph glyph-name="thorn" unicode="&#xfe;" horiz-adv-x="1129" 
d="M430 896q85 93 206 93q177 0 301 -141q126 -145 126 -366q0 -219 -120 -367q-111 -137 -292 -137q-85 0 -146 34q-33 18 -75 60v-296q-1 -81 27 -103q24 -17 120 -21v-58q-171 13 -276 13t-276 -13v58q95 4 120 21q27 20 27 103v1355q0 60 -4.5 86t-17.5 38
q-23 23 -123 22v54q201 13 403 72v-507zM608 932q-66 0 -112 -62q-68 -92 -68 -392q0 -198 36 -315q19 -60 59.5 -94t94.5 -34q107 0 146 124q35 113 35 301q0 206 -33 327q-39 145 -158 145z" />
    <glyph glyph-name="minus" unicode="&#x2212;" horiz-adv-x="1108" 
d="M95 604v170h918v-170h-918z" />
    <glyph glyph-name="multiply" unicode="&#xd7;" horiz-adv-x="1108" 
d="M131 988l124 124l302 -302l297 297l118 -119l-297 -296l302 -302l-124 -124l-302 301l-296 -296l-119 118l297 297z" />
    <glyph glyph-name="uni00B9" unicode="&#xb9;" horiz-adv-x="721" 
d="M459 1365v-702q1 -60 28 -71q22 -9 79 -9v-55q-108 9 -194 9t-193 -9v55q57 0 79 9q28 11 28 71v518h-141v52q95 8 160.5 41t101.5 91h52z" />
    <glyph glyph-name="uni00B2" unicode="&#xb2;" horiz-adv-x="721" 
d="M632 676l-25 -145h-519v126q164 158 223 231q119 143 119 229q0 50 -34 82t-90 32q-72 0 -112 -50q-21 -28 -34 -87h-70q16 122 60 171q72 80 209 80q101 0 169 -48q79 -57 79 -154q0 -106 -143 -258q-62 -67 -218 -209h386z" />
    <glyph glyph-name="uni00B3" unicode="&#xb3;" horiz-adv-x="721" 
d="M71 766h65q24 -136 162 -136q75 0 120 38q47 39 47 109q0 102 -92 130q-40 12 -118 12h-30v59h30q83 0 116 18q59 34 59 112q0 60 -36 95q-34 33 -87 33q-111 0 -145 -126h-64q24 235 259 235q114 0 181 -59q62 -56 62 -145q0 -128 -137 -181q173 -42 173 -194
q0 -111 -88 -180q-85 -66 -208 -66q-169 0 -236 119q-28 49 -33 127z" />
    <glyph glyph-name="onehalf" unicode="&#xbd;" horiz-adv-x="1575" 
d="M459 1365v-702q1 -60 28 -71q22 -9 79 -9v-55q-108 9 -194 9t-193 -9v55q57 0 79 9q28 11 28 71v518h-141v52q95 8 160.5 41t101.5 91h52zM348 0l773 1332h106l-773 -1332h-106zM1486 145l-25 -145h-519v126q165 159 223 230q119 144 119 230q0 50 -34 82t-90 32
q-72 0 -111 -50q-22 -28 -36 -87h-69q16 122 60 171q72 80 209 80q101 0 169 -48q79 -57 79 -154q0 -79 -62 -162q-73 -99 -299 -305h386z" />
    <glyph glyph-name="onequarter" unicode="&#xbc;" horiz-adv-x="1575" 
d="M459 1365v-702q1 -60 28 -71q22 -9 79 -9v-55q-108 9 -194 9t-193 -9v55q57 0 79 9q28 11 28 71v518h-141v52q95 8 160.5 41t101.5 91h52zM348 0l773 1332h106l-773 -1332h-106zM1223 -8v198h-333l319 636h189v-514h141v-122h-141v-198h-175zM1230 312v419l-206 -419h206
z" />
    <glyph glyph-name="threequarters" unicode="&#xbe;" horiz-adv-x="1575" 
d="M71 766h65q24 -136 162 -136q75 0 120 38q47 39 47 109q0 102 -92 130q-40 12 -118 12h-30v59h30q83 0 116 18q59 34 59 112q0 60 -36 95q-34 33 -87 33q-111 0 -145 -126h-64q24 235 259 235q114 0 181 -59q62 -56 62 -145q0 -128 -137 -181q173 -42 173 -194
q0 -111 -88 -180q-85 -66 -208 -66q-169 0 -236 119q-28 49 -33 127zM348 0l773 1332h106l-773 -1332h-106zM1223 -8v198h-333l319 636h189v-514h141v-122h-141v-198h-175zM1230 312v419l-206 -419h206z" />
    <glyph glyph-name="glyph247" horiz-adv-x="512" 
 />
    <glyph glyph-name="glyph248" horiz-adv-x="512" 
 />
    <glyph glyph-name="glyph249" horiz-adv-x="512" 
 />
    <glyph glyph-name="glyph250" horiz-adv-x="512" 
 />
    <glyph glyph-name="glyph251" horiz-adv-x="512" 
 />
    <glyph glyph-name="glyph252" horiz-adv-x="512" 
 />
    <glyph glyph-name="glyph253" horiz-adv-x="512" 
 />
    <glyph glyph-name="glyph254" horiz-adv-x="512" 
 />
    <glyph glyph-name="glyph255" horiz-adv-x="512" 
 />
    <glyph glyph-name="glyph256" horiz-adv-x="512" 
 />
    <glyph glyph-name="glyph257" horiz-adv-x="512" 
 />
    <glyph glyph-name="uni00A0" unicode="&#xa0;" horiz-adv-x="512" 
 />
    <glyph glyph-name="uni00AD" unicode="&#xad;" horiz-adv-x="545" 
d="M0 469v107h545v-107h-545z" />
    <glyph glyph-name="periodcentered" unicode="&#xb7;" horiz-adv-x="537" 
d="M271 662q64 0 112 -47q47 -47 47 -114t-47 -114q-48 -47 -114 -47t-114 47q-47 48 -47 114q0 68 47 114q49 47 116 47z" />
    <glyph glyph-name="glyph261" 
d="M652 1480h-102l-503 268h426z" />
    <glyph glyph-name="glyph262" 
d="M345 1411q53 0 91 -41q39 -42 39 -100t-39 -99q-38 -42 -93 -42q-54 0 -93 42q-39 41 -39 99q0 59 39 100t95 41zM683 1411q53 0 91 -41q39 -41 39 -100t-39 -99q-39 -42 -93 -42t-93 42q-39 41 -39 99q0 59 39 100t95 41z" />
    <glyph glyph-name="glyph263" 
d="M335 1754q56 0 97 -41t41 -98q0 -58 -41 -99t-98 -41q-58 0 -99 41t-41 98q0 59 41 99q42 41 100 41zM692 1754q56 0 97 -41t41 -98q0 -58 -41 -99t-98 -41q-58 0 -99 41t-41 98q0 59 41 99q42 41 100 41z" />
    <glyph glyph-name="glyph264" 
d="M890 1775l-378 -324l-379 324h97l282 -127l282 127h96z" />
    <glyph glyph-name="glyph265" 
d="M133 1456l379 324l378 -324h-96l-282 127l-282 -127h-97z" />
    <glyph glyph-name="glyph266" 
d="M220 1497l-65 19q42 106 72 145q60 76 147 76q64 0 155 -46q98 -50 139 -50q53 0 89 39q17 18 46 61l66 -15q-39 -119 -92 -177q-54 -60 -140 -60q-44 0 -92 20q-24 10 -97 47q-62 31 -103 31q-72 0 -125 -90z" />
    <glyph glyph-name="glyph267" 
d="M324 1760q58 0 101 -43q43 -42 43 -103q0 -60 -43 -103t-103 -43t-103 43t-43 103q0 61 43 103q44 43 105 43zM703 1760q59 0 101 -43q43 -42 43 -103q0 -60 -43 -103q-42 -43 -103 -43q-60 0 -103 43t-43 103q0 61 43 103q44 43 105 43z" />
    <glyph glyph-name="glyph268" 
d="M460 1480l179 268h426l-503 -268h-102z" />
    <glyph glyph-name="glyph269" 
d="M525 1812q73 0 127 -54q53 -53 53 -129t-53 -129q-54 -54 -130 -54t-129 54q-54 53 -54 129q0 77 54 129q55 54 132 54zM521 1723q-39 0 -66 -28q-28 -27 -28 -66q0 -40 28 -67q28 -28 67 -28t67 28q28 27 28 66q0 40 -28 67q-28 28 -68 28z" />
    <glyph glyph-name="glyph270" unicode="&#x20ac;" horiz-adv-x="1107" 
d="M422 830h515l-41 -90h-479q-2 -71 -1 -104h433l-41 -90h-388q5 -123 44 -234q36 -101 84 -148q65 -64 176 -64q199 0 338 186v-163q-148 -149 -371 -149q-351 0 -485 321q-48 113 -57 251h-174l55 90h115q0 43 3 104h-160l55 90h114q27 188 110 316q159 246 427 246
q172 0 276 -109l44 104h52v-403h-63q-22 108 -52 169q-73 144 -217 144q-186 0 -269 -240q-36 -104 -43 -227z" />
    <glyph glyph-name="Euro" horiz-adv-x="1107" 
d="M422 830h515l-41 -90h-479q-2 -71 -1 -104h433l-41 -90h-388q5 -123 44 -234q36 -101 84 -148q65 -64 176 -64q199 0 338 186v-163q-148 -149 -371 -149q-351 0 -485 321q-48 113 -57 251h-174l55 90h115q0 43 3 104h-160l55 90h114q27 188 110 316q159 246 427 246
q172 0 276 -109l44 104h52v-403h-63q-22 108 -52 169q-73 144 -217 144q-186 0 -269 -240q-36 -104 -43 -227z" />
    <glyph glyph-name="glyph272" horiz-adv-x="512" 
 />
    </font>
</defs>
</svg>
